<?xml version="1.0" standalone="no"?>
<!DOCTYPE svg PUBLIC "-//W3C//DTD SVG 1.1//EN" "http://www.w3.org/Graphics/SVG/1.1/DTD/svg11.dtd" >
<svg xmlns="http://www.w3.org/2000/svg" xmlns:xlink="http://www.w3.org/1999/xlink" version="1.1">
<metadata>
Created by FontForge 20201107 at Wed Jan 17 11:47:17 2024
 By 
Copyright (c) 1990, 1991 Adobe Systems Incorporated.  All Rights Reserved.Gill Sans is a registered trademark of The Monotype Corporation Plc.
</metadata>
<defs>
<font id="GillSans-UltraBold" horiz-adv-x="1748" >
  <font-face 
    font-family="Gill Sans Ultra"
    font-weight="700"
    font-stretch="normal"
    units-per-em="2048"
    panose-1="0 0 0 0 0 0 0 0 0 0"
    ascent="1638"
    descent="-410"
    x-height="1204"
    cap-height="1526"
    bbox="-457 -516 3148 2036"
    underline-thickness="102"
    underline-position="-255"
    unicode-range="U+0020-FB02"
  />
<missing-glyph horiz-adv-x="681" 
 />
    <glyph glyph-name=".notdef" horiz-adv-x="681" 
 />
    <glyph glyph-name=".null" horiz-adv-x="0" 
 />
    <glyph glyph-name="nonmarkingreturn" horiz-adv-x="682" 
 />
    <glyph glyph-name="space" unicode=" " horiz-adv-x="681" 
 />
    <glyph glyph-name="exclam" unicode="!" horiz-adv-x="831" 
d="M336 438q-258 431 -258 697q0 181 96 298t244 117q145 0 239.5 -114t94.5 -289q0 -164 -65 -333.5t-195 -375.5q75 -28 118 -88t43 -137q0 -98 -69.5 -168t-167.5 -70t-169 70t-71 168q0 76 43 136.5t117 88.5z" />
    <glyph glyph-name="quotedbl" unicode="&#x22;" horiz-adv-x="1024" 
d="M569 1526h406v-242l-64 -297h-278l-64 297v242zM49 1526h406v-242l-64 -297h-278l-64 297v242z" />
    <glyph glyph-name="numbersign" unicode="#" horiz-adv-x="1366" 
d="M471 309l-74 -350h-276l74 350h-129v277h186l45 217h-231v276h288l74 351h277l-74 -351h266l74 351h276l-73 -351h129v-276h-187l-45 -217h232v-277h-289l-74 -350h-276l73 350h-266zM528 586h267l45 217h-267z" />
    <glyph glyph-name="dollar" unicode="$" horiz-adv-x="1556" 
d="M1008 879q241 -75 342.5 -187.5t101.5 -261.5q0 -207 -159 -331t-427 -124q-269 0 -520 111l-94 -111h-264l563 676q-248 89 -348.5 187t-100.5 258q0 90 33.5 166t89.5 128.5t131 89t156 53.5t166 17q142 0 286.5 -33t233.5 -87l100 120h269zM817 969l174 213
q-62 53 -137 53q-59 0 -99 -38t-40 -95q0 -40 23.5 -70.5t78.5 -62.5zM752 571l-187 -221q72 -59 144 -59q57 0 99 42t42 99q0 40 -23 72.5t-75 66.5z" />
    <glyph glyph-name="percent" unicode="%" horiz-adv-x="2197" 
d="M428 1161q0 -37 26 -60.5t66 -23.5q41 0 67.5 23.5t26.5 60.5q0 35 -26.5 58.5t-67.5 23.5q-40 0 -66 -23.5t-26 -58.5zM991 1139q0 -173 -136 -291.5t-335 -118.5t-334 118t-135 292q0 175 135 293t334 118q131 0 239 -54t170 -148t62 -209zM588 -25l790 1575h226
l-789 -1575h-227zM2146 395q0 -173 -135.5 -291t-335.5 -118q-199 0 -334 118t-135 291q0 175 135 293.5t334 118.5q131 0 239 -54t170 -148.5t62 -209.5zM1583 418q0 -37 26 -60.5t66 -23.5q41 0 67.5 23.5t26.5 60.5q0 35 -26.5 58.5t-67.5 23.5q-40 0 -66 -23.5
t-26 -58.5z" />
    <glyph glyph-name="ampersand" unicode="&#x26;" horiz-adv-x="1921" 
d="M1360 874h387q-71 -109 -140.5 -199.5t-170.5 -191.5l473 -483h-690l-154 156q-110 -85 -251 -133t-279 -48q-207 0 -324 103t-117 258q0 283 375 444q-154 164 -154 326q0 192 150 318t377 126q203 0 332 -101.5t129 -262.5q0 -201 -211 -352l145 -148q68 71 123 188z
M872 354l-167 168q-57 -35 -78 -62t-21 -65q0 -46 33 -76t84 -30q67 0 149 65zM944 967q133 39 133 141q0 46 -31.5 75t-80.5 29q-47 0 -81 -31t-34 -75q0 -67 94 -139z" />
    <glyph glyph-name="quotesingle" unicode="'" horiz-adv-x="575" 
d="M84 1526h405v-242l-63 -297h-279l-63 297v242z" />
    <glyph glyph-name="parenleft" unicode="(" horiz-adv-x="1153" 
d="M725 1550h405q-94 -96 -161.5 -175.5t-129 -171.5t-98 -181t-58 -194t-21.5 -222q0 -188 60.5 -358.5t160.5 -306.5t252 -279h-410q-147 108 -252.5 211.5t-182 219t-114 243t-37.5 270.5q0 272 143 498.5t443 445.5z" />
    <glyph glyph-name="parenright" unicode=")" horiz-adv-x="1153" 
d="M18 1550h414q304 -227 443 -456t139 -488q0 -278 -148 -504t-438 -440h-410q254 244 364 464.5t110 479.5q0 257 -114 484t-360 460z" />
    <glyph glyph-name="asterisk" unicode="*" horiz-adv-x="1472" 
d="M496 252l90 364l-4 5l-273 -265q-90 67 -154 180.5t-81 237.5l364 103v4l-364 102q14 113 79 229.5t156 188.5l273 -268l4 4l-90 368q102 45 239 45q140 0 242 -45l-90 -368l4 -4l270 268q92 -72 158 -188.5t80 -229.5l-367 -102v-4l367 -103q-17 -124 -81.5 -237.5
t-156.5 -180.5l-270 265l-4 -5l90 -364q-122 -45 -242 -45q-117 0 -239 45z" />
    <glyph glyph-name="plus" unicode="+" horiz-adv-x="1366" 
d="M109 856h411v412h324v-412h411v-324h-411v-411h-324v411h-411v324z" />
    <glyph glyph-name="comma" unicode="," horiz-adv-x="831" 
d="M215 -289l-18 13q66 38 108.5 108t48.5 148q-266 79 -266 319q0 148 97.5 249t240.5 101q145 0 237.5 -101t92.5 -261q0 -105 -45 -204.5t-119.5 -175.5t-173 -128t-203.5 -68z" />
    <glyph glyph-name="hyphen" unicode="-" horiz-adv-x="854" 
d="M74 410v385h704v-385h-704z" />
    <glyph glyph-name="period" unicode="." horiz-adv-x="831" 
d="M416 627q135 0 230 -95.5t95 -230.5t-95 -230.5t-230 -95.5t-230.5 95.5t-95.5 230.5t95.5 230.5t230.5 95.5z" />
    <glyph glyph-name="slash" unicode="/" horiz-adv-x="575" 
d="M313 1526h328l-379 -1704h-328z" />
    <glyph glyph-name="zero" unicode="0" 
d="M1657 764q0 -165 -60.5 -311t-164.5 -251t-249.5 -166t-308.5 -61t-308 61t-249 166t-164.5 251t-60.5 311q0 164 60.5 310t164.5 250t249 165t308 61t308.5 -61t249.5 -165t164.5 -250t60.5 -310zM1030 805q0 69 -44.5 114.5t-111.5 45.5q-66 0 -110.5 -45.5
t-44.5 -114.5t44.5 -114.5t110.5 -45.5q67 0 111.5 45.5t44.5 114.5z" />
    <glyph glyph-name="one" unicode="1" 
d="M1214 0h-679v1354l679 196v-1550z" />
    <glyph glyph-name="two" unicode="2" 
d="M1470 272v-272h-1226q290 362 392.5 522t102.5 264q0 66 -43 111t-106 45q-81 0 -157.5 -63.5t-180.5 -210.5l12 692q147 104 267.5 147t261.5 43q123 0 234 -37t202.5 -110t146 -196t54.5 -281q0 -321 -250 -654h290z" />
    <glyph glyph-name="three" unicode="3" 
d="M342 1526h590q278 0 420.5 -102.5t142.5 -297.5q0 -119 -60 -199t-198 -143q132 -47 202 -142t70 -226q0 -199 -140 -307.5t-431 -108.5h-596v530q127 -157 311 -157q83 0 132 38.5t49 104.5q0 83 -63.5 132.5t-170.5 49.5q-109 0 -258 -55v270q106 -28 227 -28
q115 0 182.5 46t67.5 124q0 68 -50 108.5t-134 40.5q-89 0 -167.5 -44t-125.5 -120v486z" />
    <glyph glyph-name="four" unicode="4" 
d="M1386 0h-679v512h-609v326l609 688h679v-666h248v-348h-248v-512zM707 860v371l-322 -371h322z" />
    <glyph glyph-name="five" unicode="5" 
d="M1583 1526v-273h-539l-53 -206q256 -15 391.5 -150.5t135.5 -349.5q0 -166 -83 -296.5t-232.5 -203t-338.5 -72.5q-115 0 -227 25.5t-208.5 74t-166 125.5t-92.5 173l12 14q165 -111 346 -111q137 0 223.5 60.5t86.5 155.5t-84 144.5t-244 49.5q-95 0 -171 -22t-120 -54
l-16 13l225 903h1155z" />
    <glyph glyph-name="six" unicode="6" 
d="M1630 1526v-27q-135 -40 -272.5 -125.5t-235.5 -191.5q255 -37 399 -187t144 -377q0 -187 -100 -333.5t-280.5 -228t-412.5 -81.5q-231 0 -409 83.5t-275.5 235t-97.5 347.5q0 249 155 478.5t449 406.5h936zM1004 676q0 61 -38.5 101t-97.5 40q-57 0 -98 -41.5t-41 -99.5
q0 -57 39.5 -96t97.5 -39q60 0 99 38t39 97z" />
    <glyph glyph-name="seven" unicode="7" 
d="M961 0h-740l539 1253h-451v273h1307z" />
    <glyph glyph-name="eight" unicode="8" 
d="M1280 770v-4q180 -40 268 -133t88 -244q0 -222 -190 -318t-574 -96t-570.5 104t-186.5 318q0 147 86 238t262 131v4q-336 77 -336 350q0 76 23 139.5t76 118t133.5 92t201 59t273.5 21.5q407 0 597.5 -100.5t190.5 -325.5q0 -278 -342 -354zM874 1235q-53 0 -89.5 -36.5
t-36.5 -88.5q0 -53 37 -90t89 -37t89.5 37.5t37.5 89.5t-37 88.5t-90 36.5zM1004 422q0 57 -37 95t-93 38t-92.5 -36.5t-36.5 -92.5q0 -55 38.5 -92t95.5 -37q53 0 89 36.5t36 88.5z" />
    <glyph glyph-name="nine" unicode="9" 
d="M121 0v27q136 40 274 126t234 191q-255 37 -399 186.5t-144 376.5q0 187 100.5 334t281 228t411.5 81t409 -83t275.5 -234.5t97.5 -347.5q0 -244 -152.5 -474.5t-451.5 -410.5h-936zM748 850q0 -61 38 -101t97 -40q58 0 98.5 41t40.5 100q0 57 -39.5 96t-97.5 39
q-59 0 -98 -38.5t-39 -96.5z" />
    <glyph glyph-name="colon" unicode=":" horiz-adv-x="831" 
d="M416 1272q142 0 233.5 -69t91.5 -199t-91.5 -199.5t-233.5 -69.5t-234 69.5t-92 199.5q0 129 92 198.5t234 69.5zM416 512q142 0 233.5 -69t91.5 -199t-91.5 -199.5t-233.5 -69.5t-234 69.5t-92 199.5q0 129 92 198.5t234 69.5z" />
    <glyph glyph-name="semicolon" unicode=";" horiz-adv-x="831" 
d="M215 -289l-18 13q66 38 108.5 108t48.5 148q-129 38 -197.5 114t-68.5 180q0 72 28 130.5t76 95t108 56t126 19.5q145 0 236.5 -81.5t91.5 -227.5q0 -98 -45 -193.5t-119 -169t-172.5 -125t-202.5 -67.5zM416 1305q142 0 233.5 -69.5t91.5 -199.5t-91.5 -199t-233.5 -69
t-234 69.5t-92 198.5q0 130 92 199.5t234 69.5z" />
    <glyph glyph-name="less" unicode="&#x3c;" horiz-adv-x="1366" 
d="M109 840l1148 475v-350l-702 -273l702 -272v-350l-1148 475v295z" />
    <glyph glyph-name="equal" unicode="=" horiz-adv-x="1366" 
d="M109 1102h1148v-324h-1148v324zM109 610h1148v-323h-1148v323z" />
    <glyph glyph-name="greater" unicode="&#x3e;" horiz-adv-x="1366" 
d="M1257 840v-295l-1148 -475v350l702 272l-702 273v350z" />
    <glyph glyph-name="question" unicode="?" horiz-adv-x="1173" 
d="M12 928q17 80 51 162.5t89 166t123 148t160.5 105t193.5 40.5q184 0 308 -125t124 -311q0 -166 -96 -321t-316 -336q81 -29 125.5 -90.5t44.5 -143.5q0 -104 -72 -176t-176 -72q-106 0 -179 70.5t-73 173.5q0 51 19 98.5t47 83t61 77t61 79t47 88.5t19 107q0 122 -72 196
t-192 74q-62 0 -130.5 -22.5t-166.5 -71.5z" />
    <glyph glyph-name="at" unicode="@" horiz-adv-x="1515" 
d="M1157 1186l-125 -791q-8 -38 -0.5 -58t35.5 -20q24 0 59 15.5t78 54t79 92.5t60.5 141.5t24.5 190.5q0 261 -150.5 415t-406.5 154q-194 0 -345.5 -91.5t-235 -257.5t-83.5 -380q0 -315 179 -506.5t471 -191.5q145 0 270 45t248 141h225q-118 -155 -321 -254.5
t-418 -99.5q-174 0 -327.5 66.5t-262.5 181t-172.5 275.5t-63.5 343q0 82 13.5 166.5t44 173.5t75.5 169.5t113 152.5t151.5 124t196.5 82.5t242 30.5q145 0 266 -40.5t205.5 -111t143.5 -165t86.5 -201t27.5 -221.5q0 -110 -27.5 -208t-73.5 -168t-102.5 -126t-117.5 -90
t-116.5 -51.5t-101.5 -17.5q-63 0 -99.5 28t-55.5 90q-66 -65 -120 -91.5t-120 -26.5q-145 0 -235 119t-90 311q0 153 52 298.5t152.5 244t223.5 98.5q73 0 126 -34t109 -114l19 113h194zM502 524q0 -102 36 -159.5t101 -57.5q58 0 113 55q54 54 88 205t34 295
q0 90 -33.5 138.5t-97.5 48.5q-74 0 -130 -77t-83.5 -195t-27.5 -253z" />
    <glyph glyph-name="A" unicode="A" horiz-adv-x="2027" 
d="M678 0h-676l530 1526h963l530 -1526h-675l-88 258h-496zM1139 618l-123 373h-4l-123 -373h250z" />
    <glyph glyph-name="B" unicode="B" horiz-adv-x="1792" 
d="M147 1526h955q103 0 188.5 -14.5t145.5 -39t106.5 -59t74.5 -71.5t46 -80.5t24.5 -82t6.5 -79.5q0 -102 -45 -184t-154 -144q136 -72 188 -157t52 -193q0 -90 -32 -166t-95 -133.5t-164.5 -90t-231.5 -32.5h-1065v1526zM823 1219v-297h17q110 0 156 33.5t46 115.5
q0 148 -178 148h-41zM823 666v-330h21q117 0 166 36t49 122q0 172 -189 172h-47z" />
    <glyph glyph-name="C" unicode="C" horiz-adv-x="1599" 
d="M1571 1389l-283 -539q-121 43 -274 43q-215 0 -215 -117q0 -57 60.5 -88t170.5 -31q150 0 258 54l283 -578q-115 -70 -286 -114t-329 -44q-166 0 -307 43.5t-239.5 118t-168 174t-102.5 211.5t-33 230q0 230 108.5 412t302.5 284t439 102q164 0 335.5 -44.5t279.5 -116.5
z" />
    <glyph glyph-name="D" unicode="D" horiz-adv-x="1812" 
d="M152 1526h751q134 0 249.5 -26t200.5 -70.5t153.5 -105.5t113.5 -129.5t75 -144.5t43 -147.5t13 -142.5q0 -69 -12.5 -139.5t-42.5 -146t-74.5 -143.5t-114 -129t-156.5 -105.5t-206 -70.5t-258 -26h-735v1526zM827 942v-358h17q122 0 176.5 43t54.5 139q0 82 -50 129
t-155 47h-43z" />
    <glyph glyph-name="E" unicode="E" horiz-adv-x="1472" 
d="M1417 383v-383h-1267v1526h1267v-383h-592v-189h412v-383h-412v-188h592z" />
    <glyph glyph-name="F" unicode="F" horiz-adv-x="1409" 
d="M150 0v1526h1255v-383h-580v-277h430v-383h-430v-483h-675z" />
    <glyph glyph-name="G" unicode="G" 
d="M1692 1346l-326 -459q-204 98 -377 98q-115 0 -184.5 -59.5t-69.5 -157.5q0 -95 60.5 -140.5t183.5 -45.5v239h676v-823q-405 -23 -555 -23q-263 0 -452.5 52t-309.5 172q-234 234 -234 569q0 117 29.5 227t96 211.5t163 177.5t240.5 121t319 45q188 0 386 -54.5
t354 -149.5z" />
    <glyph glyph-name="H" unicode="H" horiz-adv-x="1984" 
d="M819 0h-676v1526h676v-559h344v559h676v-1526h-676v567h-344v-567z" />
    <glyph glyph-name="I" unicode="I" horiz-adv-x="980" 
d="M154 0v1526h675v-1526h-675z" />
    <glyph glyph-name="J" unicode="J" horiz-adv-x="1153" 
d="M360 1526h676v-905q0 -246 -19 -353.5t-81 -169.5q-123 -123 -342 -123q-213 0 -373 104t-211 275q56 -12 146 -12q69 0 108 8.5t61 34t28.5 59.5t6.5 97v985z" />
    <glyph glyph-name="K" unicode="K" horiz-adv-x="1941" 
d="M829 1526v-510q121 9 202 79.5t116 179t35 251.5h688q0 -274 -71.5 -455.5t-229.5 -304.5q311 -239 344 -766h-729q-12 270 -102 411t-253 146v-557h-675v1526h675z" />
    <glyph glyph-name="L" unicode="L" horiz-adv-x="1429" 
d="M147 0v1526h676v-1143h592v-383h-1268z" />
    <glyph glyph-name="M" unicode="M" horiz-adv-x="2154" 
d="M145 0v1526h656l276 -318l277 318h655v-1526h-676v764l-256 -295l-256 295v-764h-676z" />
    <glyph glyph-name="N" unicode="N" horiz-adv-x="1812" 
d="M150 0v1526h483l352 -510h4v510h676v-1538h-512l-324 475h-4v-463h-675z" />
    <glyph glyph-name="O" unicode="O" 
d="M92 764q0 162 61 308t165 250.5t249 166t307 61.5t307 -61.5t249.5 -166t165.5 -250.5t61 -308q0 -131 -39 -251.5t-111 -217.5t-168 -169.5t-216 -111.5t-249 -39q-216 0 -395.5 104.5t-283 285.5t-103.5 399zM723 805q0 -69 42.5 -114.5t108.5 -45.5t109 45.5t43 114.5
t-43 114.5t-109 45.5t-108.5 -45.5t-42.5 -114.5z" />
    <glyph glyph-name="P" unicode="P" horiz-adv-x="1705" 
d="M154 1526h925q134 0 241 -33t174 -85.5t111.5 -122t62.5 -137.5t18 -138q0 -140 -68 -258.5t-185 -187t-255 -68.5q-91 0 -173 31.5t-176 101.5v-629h-675v1526zM829 1196v-332q31 -8 56 -8q76 0 123 48t47 126q0 72 -37.5 119t-116.5 47h-72z" />
    <glyph glyph-name="Q" unicode="Q" 
d="M1530 330l256 -330h-510l-45 59q-82 -39 -163.5 -61.5t-193.5 -22.5q-216 0 -395.5 104.5t-283 285.5t-103.5 399q0 162 61 308t165 250.5t249 166t307 61.5t307 -61.5t249.5 -166t165.5 -250.5t61 -308q0 -240 -127 -434zM723 805q0 -69 42.5 -114.5t108.5 -45.5
t109 45.5t43 114.5t-43 114.5t-109 45.5t-108.5 -45.5t-42.5 -114.5z" />
    <glyph glyph-name="R" unicode="R" horiz-adv-x="1835" 
d="M150 1526h997q112 0 205 -26t157 -69.5t108 -102.5t64.5 -124t20.5 -135q0 -106 -44.5 -193t-129.5 -145q247 -281 295 -731h-701q-22 303 -91 434t-206 131v-565h-675v1526zM825 1212v-294h19q93 0 137.5 35t44.5 108q0 61 -37 106t-123 45h-41z" />
    <glyph glyph-name="S" unicode="S" horiz-adv-x="1492" 
d="M1430 1448l-168 -481q-77 106 -176 164.5t-203 58.5q-59 0 -89 -24.5t-30 -65.5q0 -31 43.5 -60.5t114 -57.5t147 -57.5t155.5 -72.5t126 -90q106 -106 106 -285q0 -242 -183.5 -372t-549.5 -130q-401 0 -698 115l165 510q68 -107 175 -175.5t208 -68.5q47 0 80 24.5
t33 61.5q0 36 -33 65.5t-85.5 52t-116.5 47t-128 60.5t-116.5 82t-85.5 120.5t-33 168.5q0 253 185 382.5t546 129.5q155 0 322 -28t289 -74z" />
    <glyph glyph-name="T" unicode="T" horiz-adv-x="1429" 
d="M37 850v676h1356v-676h-340v-850h-676v850h-340z" />
    <glyph glyph-name="U" unicode="U" horiz-adv-x="1771" 
d="M1645 1526v-692q0 -221 -52 -374.5t-159 -260.5q-114 -114 -258.5 -169t-290.5 -55q-150 0 -297 57.5t-258 168.5q-114 114 -158.5 272.5t-44.5 390.5v662h676v-707q0 -36 1 -58t5.5 -47t12.5 -38t23.5 -22t37.5 -9q51 0 68.5 48t17.5 190v643h676z" />
    <glyph glyph-name="V" unicode="V" horiz-adv-x="1728" 
d="M1192 0h-655l-519 1526h674l170 -506h4l170 506h674z" />
    <glyph glyph-name="W" unicode="W" horiz-adv-x="2516" 
d="M1036 0h-497l-539 1526h659l177 -498l186 498h469l195 -498l167 498h660l-514 -1526h-498l-241 604z" />
    <glyph glyph-name="X" unicode="X" horiz-adv-x="1984" 
d="M614 772l-596 754h738l225 -281l215 281h733l-577 -750l614 -776h-739l-242 303l-233 -303h-734z" />
    <glyph glyph-name="Y" unicode="Y" horiz-adv-x="1855" 
d="M1266 0h-676v666l-582 860h684l236 -346l235 346h684l-581 -860v-666z" />
    <glyph glyph-name="Z" unicode="Z" horiz-adv-x="1685" 
d="M1636 383v-383h-1607l702 1143h-645v383h1585l-702 -1143h667z" />
    <glyph glyph-name="bracketleft" unicode="[" horiz-adv-x="1087" 
d="M1057 31v-338h-910v1833h910v-338h-291v-1157h291z" />
    <glyph glyph-name="backslash" unicode="\" horiz-adv-x="575" 
d="M262 1526l379 -1704h-328l-379 1704h328z" />
    <glyph glyph-name="bracketright" unicode="]" horiz-adv-x="1087" 
d="M31 31h291v1157h-291v338h909v-1833h-909v338z" />
    <glyph glyph-name="asciicircum" unicode="^" horiz-adv-x="1343" 
d="M530 1526h279l410 -813h-355l-194 491l-193 -491h-354z" />
    <glyph glyph-name="underscore" unicode="_" horiz-adv-x="1024" 
d="M-12 -154h1048v-102h-1048v102z" />
    <glyph glyph-name="grave" unicode="`" horiz-adv-x="681" 
d="M530 1282h-206l-342 268h411z" />
    <glyph glyph-name="a" unicode="a" horiz-adv-x="1449" 
d="M127 709v362q145 77 282.5 110t311.5 33q301 0 458.5 -128.5t157.5 -419.5v-666h-618v90q-59 -45 -141.5 -72.5t-159.5 -27.5q-138 0 -230 89.5t-92 225.5q0 156 114 253t298 97q108 0 211 -28q0 86 -65.5 132t-178.5 46q-90 0 -171 -22.5t-177 -73.5zM719 266v168
q-61 19 -101 19q-57 0 -90.5 -29t-33.5 -76q0 -49 36.5 -82t92.5 -33q57 0 96 33z" />
    <glyph glyph-name="b" unicode="b" horiz-adv-x="1622" 
d="M729 1526v-359q118 47 234 47q256 0 424.5 -170t168.5 -428q0 -87 -22 -170.5t-73 -165.5t-126.5 -143t-192.5 -99t-261 -38h-770v1526h618zM729 438h14q46 0 72 1.5t58.5 9.5t49 24t28.5 46.5t12 74.5q0 68 -36.5 106.5t-97.5 38.5q-48 0 -100 -28v-273z" />
    <glyph glyph-name="c" unicode="c" horiz-adv-x="1343" 
d="M1233 1157v-528q-184 88 -338 88q-88 0 -138 -28t-50 -79q0 -56 55 -86t160 -30q87 0 172.5 17.5t138.5 45.5v-522q-175 -53 -387 -53q-160 0 -290.5 36t-216 95.5t-143.5 140.5t-83 166.5t-25 177.5q0 129 48 243.5t135 201t220 136.5t293 50q223 0 449 -72z" />
    <glyph glyph-name="d" unicode="d" horiz-adv-x="1642" 
d="M1526 1526v-1526h-735q-149 0 -270.5 36t-201.5 95.5t-134.5 139.5t-78.5 165.5t-24 175.5q0 127 45.5 239t123.5 191.5t188 125.5t235 46q76 0 140.5 -14.5t92.5 -28.5v355h619zM907 438v271q-45 30 -104 30q-55 0 -91 -43.5t-36 -109.5q0 -78 44.5 -113t137.5 -35h49z
" />
    <glyph glyph-name="e" unicode="e" horiz-adv-x="1429" 
d="M1354 459v-211q-204 -266 -584 -266q-315 0 -505.5 173.5t-190.5 460.5q0 270 176 441.5t455 171.5q142 0 263 -47.5t209 -136t135.5 -223t41.5 -298.5h-631q32 -91 112.5 -143.5t184.5 -52.5q100 0 188.5 35t145.5 96zM686 735h291q-3 88 -43.5 139.5t-106.5 51.5
q-62 0 -103 -53.5t-38 -137.5z" />
    <glyph glyph-name="f" unicode="f" horiz-adv-x="1153" 
d="M1145 840v-254h-350v-586h-619v586h-133v254h133q-4 330 174.5 520t487.5 190q134 0 307 -45v-606q-90 109 -195 109q-75 0 -115 -47t-40 -121h350z" />
    <glyph glyph-name="g" unicode="g" horiz-adv-x="1556" 
d="M1448 1204v-946q0 -297 -151.5 -446.5t-493.5 -149.5q-210 0 -394 45t-319 129v547q221 -215 492 -215q126 0 194.5 44.5t52.5 141.5q-42 -29 -111.5 -47t-142.5 -18q-225 0 -357 123t-132 333q0 138 57 236.5t125 138.5q88 50 179.5 66t306.5 16zM829 864h-14
q-106 0 -156.5 -36.5t-50.5 -114.5q0 -61 37 -98t98 -37q53 0 86 26v260z" />
    <glyph glyph-name="h" unicode="h" horiz-adv-x="1642" 
d="M725 1526v-479q141 167 365 167q203 0 322.5 -118.5t119.5 -335.5v-760h-584v696q0 74 -30.5 113t-86.5 39q-53 0 -106 -47v-801h-619v1526h619z" />
    <glyph glyph-name="i" unicode="i" horiz-adv-x="854" 
d="M737 1204v-1204h-618v1204q54 -32 139.5 -50.5t177.5 -18.5q184 0 301 69zM383 1376q0 72 52 123t124 51t123 -51t51 -123t-51 -124t-123 -52t-124 52t-52 124z" />
    <glyph glyph-name="j" unicode="j" horiz-adv-x="1024" 
d="M874 1204v-862q0 -117 -21 -215t-56 -167t-84.5 -122.5t-102.5 -86t-114.5 -53.5t-115.5 -28.5t-110 -7.5q-143 0 -252 53v459q59 -18 101 -18q79 0 108 49.5t29 156.5v842q179 -69 319 -69q161 0 299 69zM520 1376q0 72 52 123t124 51t123 -51t51 -123t-51 -124
t-123 -52t-124 52t-52 124z" />
    <glyph glyph-name="k" unicode="k" horiz-adv-x="1599" 
d="M729 1526v-721q61 26 103 65.5t65.5 92.5t34 110.5t12.5 130.5h631q-19 -191 -75.5 -302t-178.5 -200q139 -109 200 -274.5t54 -427.5h-612q0 259 -52 399.5t-182 192.5v-592h-618v1526h618z" />
    <glyph glyph-name="l" unicode="l" horiz-adv-x="854" 
d="M735 0h-618v1526h618v-1526z" />
    <glyph glyph-name="m" unicode="m" horiz-adv-x="2453" 
d="M729 1204v-151q149 161 371 161q135 0 229 -50.5t160 -157.5q106 110 209.5 159t230.5 49q191 0 306.5 -117.5t115.5 -340.5v-756h-584v719q0 64 -31.5 99.5t-82.5 35.5q-60 0 -113 -39v-815h-584v719q0 63 -30 99t-84 36q-58 0 -113 -41v-813h-618v1204h618z" />
    <glyph glyph-name="n" unicode="n" horiz-adv-x="1642" 
d="M731 1204v-151q83 85 171.5 123t201.5 38q67 0 125 -11.5t117 -43.5t100.5 -82t67.5 -134.5t26 -194.5v-748h-584v702q0 150 -114 150q-58 0 -111 -39v-813h-618v1204h618z" />
    <glyph glyph-name="o" unicode="o" horiz-adv-x="1472" 
d="M78 604q0 278 182.5 451.5t474.5 173.5q293 0 476.5 -173.5t183.5 -451.5q0 -277 -183.5 -449.5t-476.5 -172.5q-139 0 -259.5 44t-208.5 123t-138.5 196.5t-50.5 258.5zM600 616q0 -61 37.5 -99t97.5 -38q61 0 99 37.5t38 99.5t-38 100t-99 38q-60 0 -97.5 -38.5
t-37.5 -99.5z" />
    <glyph glyph-name="p" unicode="p" horiz-adv-x="1642" 
d="M739 1204v-92q138 102 297 102q150 0 271 -76.5t189.5 -212t68.5 -304.5q0 -181 -74 -325.5t-205.5 -225t-296.5 -80.5q-127 0 -250 53v-381h-618v1542h618zM739 674v-217q56 -29 107 -29q56 0 90.5 41.5t34.5 108.5q0 68 -35 110.5t-90 42.5q-62 0 -107 -57z" />
    <glyph glyph-name="q" unicode="q" horiz-adv-x="1642" 
d="M1526 -338h-619v358q-88 -45 -233 -45q-255 0 -423.5 172.5t-168.5 434.5q0 98 26 188.5t81.5 169.5t135.5 137.5t195 92.5t254 34h752v-1542zM907 479v271h-59q-88 0 -130 -37t-42 -113q0 -66 37 -110t92 -44q57 0 102 33z" />
    <glyph glyph-name="r" unicode="r" horiz-adv-x="1366" 
d="M733 1204v-256h4q56 129 142.5 197.5t195.5 68.5q125 0 206 -81.5t81 -208.5q0 -132 -79.5 -213.5t-207.5 -81.5q-146 0 -250 110q-92 -80 -92 -290v-449h-618v1204h618z" />
    <glyph glyph-name="s" unicode="s" horiz-adv-x="1259" 
d="M12 117l138 338q62 -83 152 -133t179 -50q54 0 86.5 24t32.5 62q0 40 -29.5 65.5t-80 41.5t-106.5 31t-121 47t-111 78q-97 97 -97 229q0 180 154 279.5t434 99.5q317 0 537 -103l-148 -307q-68 62 -142 96.5t-140 34.5q-45 0 -73 -19.5t-28 -51.5q0 -41 31.5 -66
t85.5 -39t113.5 -28.5t127.5 -46t115 -78.5q92 -92 92 -238q0 -99 -43.5 -177t-119 -126t-171.5 -73t-206 -25q-152 0 -330.5 36t-331.5 99z" />
    <glyph glyph-name="t" unicode="t" horiz-adv-x="1153" 
d="M1083 1204v-338h-258v-258q0 -131 117 -131q87 0 148 86v-477q-64 -44 -161.5 -70t-193.5 -26q-77 0 -150.5 17.5t-142.5 56.5t-121 96t-83 141.5t-31 187.5v377h-252l870 682v-344h258z" />
    <glyph glyph-name="u" unicode="u" horiz-adv-x="1642" 
d="M1518 1204v-1204h-592v211h-4q-95 -119 -190 -170t-222 -51q-86 0 -160.5 25.5t-133.5 76t-92.5 134t-33.5 190.5v788h584v-649q0 -80 25.5 -122t86.5 -42q75 0 113 64v749h619z" />
    <glyph glyph-name="v" unicode="v" horiz-adv-x="1492" 
d="M-4 1204h618l134 -307l131 307h618l-522 -1204h-457z" />
    <glyph glyph-name="w" unicode="w" horiz-adv-x="2027" 
d="M2 1204h633l119 -258l108 258h287l113 -258l122 258h641l-534 -1204h-344l-143 330l-144 -330h-344z" />
    <glyph glyph-name="x" unicode="x" 
d="M1729 0h-713l-168 238l-168 -238h-662l474 612l-474 592h711l168 -233l162 233h670l-474 -610z" />
    <glyph glyph-name="y" unicode="y" horiz-adv-x="1515" 
d="M856 -338h-672l248 586l-424 956h615l145 -321l139 321h600z" />
    <glyph glyph-name="z" unicode="z" horiz-adv-x="1343" 
d="M1307 403v-403h-1289l435 819h-379v385h1239l-426 -801h420z" />
    <glyph glyph-name="braceleft" unicode="{" horiz-adv-x="788" 
d="M25 406v339q102 0 148 52.5t46 163.5v172q0 223 89.5 313t301.5 90h162v-328h-37q-91 0 -122 -46.5t-31 -174.5v-55q0 -308 -181 -354v-5q181 -46 181 -354v-55q0 -128 31 -174.5t122 -46.5h37v-328h-162q-212 0 -301.5 90t-89.5 313v172q0 111 -46 163.5t-148 52.5z" />
    <glyph glyph-name="bar" unicode="|" horiz-adv-x="1366" 
d="M518 1536h328v-2048h-328v2048z" />
    <glyph glyph-name="braceright" unicode="}" horiz-adv-x="788" 
d="M764 745v-339q-102 0 -148.5 -52.5t-46.5 -163.5v-172q0 -223 -89.5 -313t-301.5 -90h-162v328h37q91 0 122.5 46.5t31.5 174.5v55q0 309 180 354v5q-180 45 -180 354v55q0 128 -31.5 174.5t-122.5 46.5h-37v328h162q212 0 301.5 -90t89.5 -313v-172q0 -111 46.5 -163.5
t148.5 -52.5z" />
    <glyph glyph-name="asciitilde" unicode="~" horiz-adv-x="1343" 
d="M1245 961v-326q-110 -89 -180 -121.5t-150 -32.5q-67 0 -140 25t-126 55t-117 55t-114 25q-154 0 -320 -160v332q91 79 170.5 114.5t167.5 35.5q66 0 141 -25t130 -55t119 -55t110 -25q74 0 147 37.5t162 120.5z" />
    <glyph glyph-name="exclamdown" unicode="&#xa1;" horiz-adv-x="831" 
d="M496 766q258 -431 258 -696q0 -181 -96 -298.5t-244 -117.5q-145 0 -239.5 114t-94.5 289q0 164 65 333.5t195 375.5q-75 28 -118.5 88.5t-43.5 136.5q0 98 70 168t168 70t168.5 -70t70.5 -168q0 -76 -42.5 -136.5t-116.5 -88.5z" />
    <glyph glyph-name="cent" unicode="&#xa2;" horiz-adv-x="1343" 
d="M938 156v-156h-309v170q-252 46 -398.5 207t-146.5 391q0 232 152 402t393 208v148h309v-142q161 -17 295 -67v-520q-174 94 -344 94q-86 0 -136.5 -31t-50.5 -84q0 -108 216 -108q171 0 315 63v-526q-127 -43 -295 -49z" />
    <glyph glyph-name="sterling" unicode="&#xa3;" horiz-adv-x="1536" 
d="M1425 393v-393h-1321q33 268 113 657h-139v211h178q23 149 72 266.5t113.5 194.5t147 127.5t169.5 72t184 21.5q149 0 274.5 -53t205 -155t83.5 -234q-131 109 -274 109q-256 0 -320 -349h187v-211h-224q-28 -166 -36 -264h587z" />
    <glyph glyph-name="currency" unicode="&#xa4;" horiz-adv-x="1366" 
d="M113 1057l213 213l141 -142q40 21 99.5 35.5t113.5 14.5q115 0 223 -54l146 146l213 -213l-148 -148q51 -100 51 -217q0 -102 -49 -213l146 -145l-213 -213l-142 141q-110 -55 -227 -55q-120 0 -217 51l-137 -137l-213 213l135 135q-53 112 -53 223q0 129 55 228z
M680 885q-80 0 -136.5 -56.5t-56.5 -136.5q0 -79 56.5 -135.5t136.5 -56.5t136 56t56 136t-56.5 136.5t-135.5 56.5z" />
    <glyph glyph-name="yen" unicode="&#xa5;" horiz-adv-x="1855" 
d="M1266 616v-143h569v-205h-569v-268h-676v268h-570v205h570v143h-570v205h465l-475 705h680l238 -346l237 346h680l-475 -705h465v-205h-569z" />
    <glyph glyph-name="brokenbar" unicode="&#xa6;" horiz-adv-x="1366" 
d="M518 358h328v-716h-328v716zM518 1382h328v-716h-328v716z" />
    <glyph glyph-name="section" unicode="&#xa7;" horiz-adv-x="1599" 
d="M1329 1483v-398q-75 83 -187.5 131t-230.5 48q-93 0 -142.5 -24.5t-49.5 -70.5q0 -23 54.5 -47.5t140 -50t177 -54t179.5 -69.5t133 -86q104 -104 104 -256q0 -103 -48.5 -173t-172.5 -146q81 -58 117.5 -124t36.5 -151q0 -92 -52.5 -161t-146.5 -109.5t-212 -60
t-261 -19.5q-182 0 -336.5 30t-255.5 83v385q84 -95 230.5 -153t320.5 -58q82 0 127 21t45 59q0 35 -54.5 64.5t-142.5 56t-183.5 56t-194 77.5t-156.5 106q-76 76 -76 203q0 117 57.5 196t186.5 136q-76 58 -111 117t-35 133q0 172 179 274t479 102q222 0 481 -67zM598 803
q-40 -43 -56 -73t-16 -64q0 -57 53.5 -86t272.5 -103q107 -36 172 -59q28 31 38.5 55.5t10.5 56.5q0 34 -14.5 61t-44.5 49t-74.5 42t-105 41.5t-136.5 46.5q-65 21 -100 33z" />
    <glyph glyph-name="dieresis" unicode="&#xa8;" horiz-adv-x="681" 
d="M461 1411q0 59 40.5 99t98.5 40t98.5 -40t40.5 -99t-40.5 -99t-98.5 -40t-98.5 40t-40.5 99zM-55 1411q0 59 40.5 99t98.5 40t98.5 -40t40.5 -99t-40.5 -99t-98.5 -40t-98.5 40t-40.5 99z" />
    <glyph glyph-name="copyright" unicode="&#xa9;" horiz-adv-x="1515" 
d="M942 629l162 -56q-38 -125 -125 -191.5t-211 -66.5q-177 0 -282 115t-105 307q0 198 104.5 314t284.5 116q248 0 334 -243l-162 -39q-28 72 -71 105.5t-107 33.5q-98 0 -152.5 -74t-54.5 -209t52.5 -209.5t146.5 -74.5q137 0 186 172zM758 1356q-125 0 -239 -48.5
t-196.5 -131t-131 -196.5t-48.5 -239t48.5 -239t131 -196t196.5 -130.5t239 -48.5q167 0 308.5 82t223.5 223.5t82 308.5q0 125 -48.5 239t-130.5 196.5t-196 131t-239 48.5zM758 1507q209 0 385 -102.5t278.5 -278.5t102.5 -385t-102.5 -385t-278.5 -278.5t-385 -102.5
t-385 102.5t-278.5 278.5t-102.5 385t102.5 385t278.5 278.5t385 102.5z" />
    <glyph glyph-name="ordfeminine" unicode="&#xaa;" horiz-adv-x="937" 
d="M80 1237v219q109 50 190 68t195 18q93 0 163.5 -16t126 -52.5t84.5 -101.5t29 -158v-401h-405v55q-56 -34 -99.5 -47.5t-95.5 -13.5q-89 0 -149 54t-60 136q0 94 75.5 152.5t195.5 58.5q57 0 133 -18q0 49 -41 76.5t-115 27.5q-60 0 -109 -12.5t-118 -44.5zM463 973v102
q-36 10 -64 10q-37 0 -59.5 -17t-22.5 -46t24.5 -48.5t61.5 -19.5q23 0 60 19z" />
    <glyph glyph-name="guillemotleft" unicode="&#xab;" horiz-adv-x="1429" 
d="M1194 606l190 -534h-413l-266 534l266 535h413zM508 606l190 -534h-413l-267 534l267 535h413z" />
    <glyph glyph-name="logicalnot" unicode="&#xac;" horiz-adv-x="1366" 
d="M109 1102h1148v-815h-323v491h-825v324z" />
    <glyph glyph-name="registered" unicode="&#xae;" horiz-adv-x="1515" 
d="M1120 332h-205l-67 131q-57 110 -105 156.5t-110 46.5h-55v-334h-166v813h409q119 0 184.5 -65t65.5 -162q0 -94 -59 -155t-160 -73v-4q52 -18 79.5 -49t92.5 -141zM578 795h159q78 0 119 29.5t41 82.5q0 111 -170 111h-149v-223zM758 1356q-125 0 -239 -48.5
t-196.5 -131t-131 -196.5t-48.5 -239t48.5 -239t131 -196t196.5 -130.5t239 -48.5q167 0 308.5 82t223.5 223.5t82 308.5q0 125 -48.5 239t-130.5 196.5t-196 131t-239 48.5zM758 1507q209 0 385 -102.5t278.5 -278.5t102.5 -385t-102.5 -385t-278.5 -278.5t-385 -102.5
t-385 102.5t-278.5 278.5t-102.5 385t102.5 385t278.5 278.5t385 102.5z" />
    <glyph glyph-name="macron" unicode="&#xaf;" horiz-adv-x="681" 
d="M-37 1305v229h756v-229h-756z" />
    <glyph glyph-name="degree" unicode="&#xb0;" horiz-adv-x="811" 
d="M408 1550q118 0 201 -83t83 -201q0 -119 -83 -203t-201 -84t-202.5 84.5t-84.5 202.5t84 201t203 83zM408 1366q-41 0 -71 -29.5t-30 -70.5t30 -72t71 -31t71.5 31t30.5 72t-30.5 70.5t-71.5 29.5z" />
    <glyph glyph-name="plusminus" unicode="&#xb1;" horiz-adv-x="1366" 
d="M109 1055h411v411h324v-411h411v-324h-411v-412h-324v412h-411v324zM109 246h1146v-324h-1146v324z" />
    <glyph glyph-name="twosuperior" unicode="&#xb2;" horiz-adv-x="1044" 
d="M881 887v-142h-736q187 205 241 279.5t54 128.5q0 34 -26 57t-66 23q-46 0 -89.5 -30t-111.5 -111l9 360q87 53 160 75.5t157 22.5q172 0 277.5 -88.5t105.5 -234.5q0 -84 -31.5 -156t-117.5 -184h174z" />
    <glyph glyph-name="threesuperior" unicode="&#xb3;" horiz-adv-x="1044" 
d="M203 1538h323q369 0 369 -207q0 -62 -36 -103t-120 -73v-4q79 -23 121.5 -72.5t42.5 -117.5q0 -103 -86.5 -159.5t-263.5 -56.5h-350v275q47 -46 88.5 -64t97.5 -18q51 0 80 20t29 54q0 44 -37.5 70t-102.5 26q-62 0 -155 -29v140q17 -2 41.5 -6t34.5 -5q40 -4 57 -4
q72 0 112.5 23.5t40.5 64.5q0 35 -29.5 56.5t-80.5 21.5q-54 0 -93 -18.5t-83 -65.5v252z" />
    <glyph glyph-name="acute" unicode="&#xb4;" horiz-adv-x="681" 
d="M152 1282l137 268h411l-342 -268h-206z" />
    <glyph glyph-name="mu" unicode="&#xb5;" horiz-adv-x="1366" 
d="M786 111h-4q-18 -65 -46 -93t-72 -28q-46 0 -81 34t-44 87h-4v-543h-584v1636h584v-669q0 -70 29 -107t85 -37q35 0 65.5 17.5t45.5 46.5v749h618v-1204h-592v111z" />
    <glyph glyph-name="paragraph" unicode="&#xb6;" 
d="M1618 1526v-318h-133v-1386h-297v1386h-166v-1386h-297v852h-135q-95 0 -172 23.5t-129 64t-87.5 96.5t-51 118.5t-15.5 131.5q0 64 15 123t50 113.5t87 94t130.5 63.5t176.5 24h1024z" />
    <glyph glyph-name="periodcentered" unicode="&#xb7;" horiz-adv-x="831" 
d="M416 1118q135 0 230 -95t95 -230t-95 -230.5t-230 -95.5t-230.5 95.5t-95.5 230.5t95.5 230t230.5 95z" />
    <glyph glyph-name="cedilla" unicode="&#xb8;" horiz-adv-x="681" 
d="M678 -168q0 -170 -369 -170q-181 0 -303 37q13 45 19 78q62 -10 104 -10q139 0 139 67q0 60 -112 57l37 56q84 35 206 35q131 0 205 -40t74 -110z" />
    <glyph glyph-name="onesuperior" unicode="&#xb9;" horiz-adv-x="1044" 
d="M727 745h-408v703l408 102v-805z" />
    <glyph glyph-name="ordmasculine" unicode="&#xba;" horiz-adv-x="960" 
d="M51 1178q0 164 119.5 268t308.5 104t308.5 -104t119.5 -268q0 -166 -119.5 -270.5t-308.5 -104.5t-308.5 104.5t-119.5 270.5zM567 1184q0 37 -24 59.5t-64 22.5q-38 0 -63 -23.5t-25 -58.5t26 -58.5t64 -23.5q37 0 61.5 23.5t24.5 58.5z" />
    <glyph glyph-name="guillemotright" unicode="&#xbb;" horiz-adv-x="1429" 
d="M922 606l-191 535h414l266 -535l-266 -534h-414zM236 606l-191 535h414l266 -535l-266 -534h-414z" />
    <glyph glyph-name="onequarter" unicode="&#xbc;" horiz-adv-x="2197" 
d="M1982 0h-407v266h-365v170l365 357h407v-344h152v-183h-152v-266zM1575 449v192l-193 -192h193zM590 -25l790 1575h228l-791 -1575h-227zM727 745h-408v703l408 102v-805z" />
    <glyph glyph-name="onehalf" unicode="&#xbd;" horiz-adv-x="2197" 
d="M2032 141v-141h-736q187 205 241 279.5t54 128.5q0 34 -26.5 57.5t-65.5 23.5q-46 0 -89 -30.5t-112 -112.5l9 361q87 53 160 75.5t157 22.5q172 0 277.5 -89t105.5 -235q0 -84 -31.5 -156t-117.5 -184h174zM565 -25l791 1575h227l-790 -1575h-228zM727 745h-408v703
l408 102v-805z" />
    <glyph glyph-name="threequarters" unicode="&#xbe;" horiz-adv-x="2197" 
d="M1982 0h-407v266h-365v170l365 357h407v-344h152v-183h-152v-266zM1575 449v192l-193 -192h193zM590 -25l790 1575h228l-791 -1575h-227zM203 1538h323q369 0 369 -207q0 -62 -36 -103t-120 -73v-4q79 -23 121.5 -72.5t42.5 -117.5q0 -103 -86.5 -159.5t-263.5 -56.5
h-350v275q47 -46 88.5 -64t97.5 -18q51 0 80 20t29 54q0 44 -37.5 70t-102.5 26q-62 0 -155 -29v140q17 -2 41.5 -6t34.5 -5q40 -4 57 -4q72 0 112.5 23.5t40.5 64.5q0 35 -29.5 56.5t-80.5 21.5q-54 0 -93 -18.5t-83 -65.5v252z" />
    <glyph glyph-name="questiondown" unicode="&#xbf;" horiz-adv-x="1173" 
d="M1161 276q-17 -80 -51 -162.5t-89.5 -166t-123.5 -148t-160.5 -105t-193.5 -40.5q-184 0 -307 125t-123 311q0 167 95.5 322.5t315.5 335.5q-81 29 -125.5 90t-44.5 143q0 104 72 176t176 72q106 0 179 -70.5t73 -173.5q0 -51 -19 -98.5t-47 -83t-61 -76.5t-61 -78.5
t-47 -88.5t-19 -107q0 -122 72 -196.5t192 -74.5q62 0 130.5 22.5t166.5 71.5z" />
    <glyph glyph-name="Agrave" unicode="&#xc0;" horiz-adv-x="2027" 
d="M678 0h-676l530 1526h963l530 -1526h-675l-88 258h-496zM1139 618l-123 373h-4l-123 -373h250zM1204 1618h-207l-342 268h412z" />
    <glyph glyph-name="Aacute" unicode="&#xc1;" horiz-adv-x="2027" 
d="M678 0h-676l530 1526h963l530 -1526h-675l-88 258h-496zM1139 618l-123 373h-4l-123 -373h250zM825 1618l138 268h411l-342 -268h-207z" />
    <glyph glyph-name="Acircumflex" unicode="&#xc2;" horiz-adv-x="2027" 
d="M678 0h-676l530 1526h963l530 -1526h-675l-88 258h-496zM1139 618l-123 373h-4l-123 -373h250zM848 1622h-221l188 264h397l191 -264h-240l-170 121z" />
    <glyph glyph-name="Atilde" unicode="&#xc3;" horiz-adv-x="2027" 
d="M678 0h-676l530 1526h963l530 -1526h-675l-88 258h-496zM1139 618l-123 373h-4l-123 -373h250zM807 1626h-207q9 131 69.5 195.5t149.5 64.5q57 0 184 -31.5t160 -31.5q27 0 41.5 14t20.5 47h202q-6 -124 -64 -192t-157 -68q-65 0 -186 32t-148 32q-53 0 -65 -62z" />
    <glyph glyph-name="Adieresis" unicode="&#xc4;" horiz-adv-x="2027" 
d="M678 0h-676l530 1526h963l530 -1526h-675l-88 258h-496zM1139 618l-123 373h-4l-123 -373h250zM1135 1747q0 59 40.5 99t98.5 40t98.5 -40t40.5 -99t-40.5 -99t-98.5 -40t-98.5 40t-40.5 99zM618 1747q0 58 40.5 98.5t99.5 40.5q58 0 98.5 -40t40.5 -99t-40.5 -99
t-98.5 -40q-59 0 -99.5 40.5t-40.5 98.5z" />
    <glyph glyph-name="Aring" unicode="&#xc5;" horiz-adv-x="2027" 
d="M678 0h-676l530 1526h963l530 -1526h-675l-88 258h-496zM1139 618l-123 373h-4l-123 -373h250zM1014 1921q-40 0 -67 -27t-27 -67t27 -68t67 -28t68 28t28 68t-28 67t-68 27zM1016 2036q88 0 148.5 -60.5t60.5 -148.5t-60.5 -149.5t-148.5 -61.5t-149.5 61.5t-61.5 149.5
t61.5 148.5t149.5 60.5z" />
    <glyph glyph-name="AE" unicode="&#xc6;" horiz-adv-x="2496" 
d="M2449 383v-383h-1267v285h-389l-117 -285h-676l678 1526h1771v-383h-591v-187h413v-383h-413v-190h591zM1182 612v648h-4l-254 -648h258z" />
    <glyph glyph-name="Ccedilla" unicode="&#xc7;" horiz-adv-x="1599" 
d="M614 -109l37 56q84 35 195 35v4q-145 11 -267.5 60t-208.5 123.5t-146.5 169.5t-89 199.5t-28.5 213.5q0 230 108.5 412t302.5 284t439 102q164 0 335.5 -44.5t279.5 -116.5l-283 -539q-121 43 -274 43q-215 0 -215 -117q0 -57 60.5 -88t170.5 -31q150 0 258 54l283 -578
q-117 -72 -287.5 -114t-341.5 -39v-5q87 -8 141 -44.5t54 -98.5q0 -170 -369 -170q-181 0 -303 37q11 37 18 78q62 -10 105 -10q139 0 139 67q0 60 -113 57z" />
    <glyph glyph-name="Egrave" unicode="&#xc8;" horiz-adv-x="1472" 
d="M1417 383v-383h-1267v1526h1267v-383h-592v-189h412v-383h-412v-188h592zM926 1618h-207l-342 268h411z" />
    <glyph glyph-name="Eacute" unicode="&#xc9;" horiz-adv-x="1472" 
d="M1417 383v-383h-1267v1526h1267v-383h-592v-189h412v-383h-412v-188h592zM547 1618l137 268h412l-342 -268h-207z" />
    <glyph glyph-name="Ecircumflex" unicode="&#xca;" horiz-adv-x="1472" 
d="M1417 383v-383h-1267v1526h1267v-383h-592v-189h412v-383h-412v-188h592zM569 1622h-221l189 264h397l190 -264h-239l-170 121z" />
    <glyph glyph-name="Edieresis" unicode="&#xcb;" horiz-adv-x="1472" 
d="M1417 383v-383h-1267v1526h1267v-383h-592v-189h412v-383h-412v-188h592zM856 1747q0 59 40 99t99 40t99.5 -40.5t40.5 -98.5t-40.5 -98.5t-99.5 -40.5t-99 40t-40 99zM340 1747q0 59 40 99t99 40t99 -40t40 -99t-40 -99t-99 -40t-99 40t-40 99z" />
    <glyph glyph-name="Igrave" unicode="&#xcc;" horiz-adv-x="980" 
d="M154 0v1526h675v-1526h-675zM680 1618h-207l-342 268h412z" />
    <glyph glyph-name="Iacute" unicode="&#xcd;" horiz-adv-x="980" 
d="M154 0v1526h675v-1526h-675zM301 1618l137 268h412l-342 -268h-207z" />
    <glyph glyph-name="Icircumflex" unicode="&#xce;" horiz-adv-x="980" 
d="M154 0v1526h675v-1526h-675zM324 1622h-222l189 264h397l191 -264h-240l-170 121z" />
    <glyph glyph-name="Idieresis" unicode="&#xcf;" horiz-adv-x="980" 
d="M154 0v1526h675v-1526h-675zM610 1747q0 58 40.5 98.5t99.5 40.5q58 0 98.5 -40t40.5 -99t-40.5 -99t-98.5 -40q-59 0 -99.5 40.5t-40.5 98.5zM94 1747q0 59 40 99t99 40t99.5 -40.5t40.5 -98.5t-40.5 -98.5t-99.5 -40.5t-99 40t-40 99z" />
    <glyph glyph-name="Eth" unicode="&#xd0;" horiz-adv-x="1812" 
d="M152 1526h751q134 0 249.5 -26t200.5 -70.5t153.5 -105.5t113.5 -129.5t75 -144.5t43 -147.5t13 -142.5q0 -69 -12.5 -139.5t-42.5 -146t-74.5 -143.5t-114 -129t-156.5 -105.5t-206 -70.5t-258 -26h-735v618h-213v287h213v621zM827 942v-358h17q122 0 176.5 43t54.5 139
q0 82 -50 129t-155 47h-43z" />
    <glyph glyph-name="Ntilde" unicode="&#xd1;" horiz-adv-x="1812" 
d="M150 0v1526h483l352 -510h4v510h676v-1538h-512l-324 475h-4v-463h-675zM698 1626h-206q9 131 69.5 195.5t149.5 64.5q57 0 184 -31.5t160 -31.5q27 0 41 14t20 47h203q-6 -124 -64 -192t-157 -68q-65 0 -186 32t-148 32q-54 0 -66 -62z" />
    <glyph glyph-name="Ograve" unicode="&#xd2;" 
d="M92 764q0 162 61 308t165 250.5t249 166t307 61.5t307 -61.5t249.5 -166t165.5 -250.5t61 -308q0 -131 -39 -251.5t-111 -217.5t-168 -169.5t-216 -111.5t-249 -39q-216 0 -395.5 104.5t-283 285.5t-103.5 399zM723 805q0 -69 42.5 -114.5t108.5 -45.5t109 45.5t43 114.5
t-43 114.5t-109 45.5t-108.5 -45.5t-42.5 -114.5zM1065 1618h-207l-342 268h412z" />
    <glyph glyph-name="Oacute" unicode="&#xd3;" 
d="M92 764q0 162 61 308t165 250.5t249 166t307 61.5t307 -61.5t249.5 -166t165.5 -250.5t61 -308q0 -131 -39 -251.5t-111 -217.5t-168 -169.5t-216 -111.5t-249 -39q-216 0 -395.5 104.5t-283 285.5t-103.5 399zM723 805q0 -69 42.5 -114.5t108.5 -45.5t109 45.5t43 114.5
t-43 114.5t-109 45.5t-108.5 -45.5t-42.5 -114.5zM686 1618l137 268h412l-342 -268h-207z" />
    <glyph glyph-name="Ocircumflex" unicode="&#xd4;" 
d="M92 764q0 162 61 308t165 250.5t249 166t307 61.5t307 -61.5t249.5 -166t165.5 -250.5t61 -308q0 -131 -39 -251.5t-111 -217.5t-168 -169.5t-216 -111.5t-249 -39q-216 0 -395.5 104.5t-283 285.5t-103.5 399zM723 805q0 -69 42.5 -114.5t108.5 -45.5t109 45.5t43 114.5
t-43 114.5t-109 45.5t-108.5 -45.5t-42.5 -114.5zM709 1622h-222l189 264h397l191 -264h-240l-170 121z" />
    <glyph glyph-name="Otilde" unicode="&#xd5;" 
d="M92 764q0 162 61 308t165 250.5t249 166t307 61.5t307 -61.5t249.5 -166t165.5 -250.5t61 -308q0 -131 -39 -251.5t-111 -217.5t-168 -169.5t-216 -111.5t-249 -39q-216 0 -395.5 104.5t-283 285.5t-103.5 399zM723 805q0 -69 42.5 -114.5t108.5 -45.5t109 45.5t43 114.5
t-43 114.5t-109 45.5t-108.5 -45.5t-42.5 -114.5zM668 1626h-207q9 131 69.5 195.5t149.5 64.5q57 0 184 -31.5t160 -31.5q27 0 41 14t20 47h203q-6 -124 -64 -192t-157 -68q-65 0 -186 32t-148 32q-53 0 -65 -62z" />
    <glyph glyph-name="Odieresis" unicode="&#xd6;" 
d="M92 764q0 162 61 308t165 250.5t249 166t307 61.5t307 -61.5t249.5 -166t165.5 -250.5t61 -308q0 -131 -39 -251.5t-111 -217.5t-168 -169.5t-216 -111.5t-249 -39q-216 0 -395.5 104.5t-283 285.5t-103.5 399zM723 805q0 -69 42.5 -114.5t108.5 -45.5t109 45.5t43 114.5
t-43 114.5t-109 45.5t-108.5 -45.5t-42.5 -114.5zM995 1747q0 58 40.5 98.5t99.5 40.5t99 -40t40 -99t-40 -99t-99 -40t-99.5 40.5t-40.5 98.5zM479 1747q0 59 40.5 99t98.5 40q59 0 99.5 -40.5t40.5 -98.5t-40.5 -98.5t-99.5 -40.5q-58 0 -98.5 40t-40.5 99z" />
    <glyph glyph-name="multiply" unicode="&#xd7;" horiz-adv-x="1366" 
d="M123 1020l229 229l330 -329l330 329l229 -229l-330 -330l330 -330l-229 -229l-330 330l-330 -330l-229 229l330 330z" />
    <glyph glyph-name="Oslash" unicode="&#xd8;" 
d="M395 137l-202 -207l-152 146l207 211q-156 220 -156 477q0 162 61 308t165 250.5t249 166t307 61.5q259 0 463 -149l152 153l153 -143l-153 -158q79 -98 123.5 -225t44.5 -264q0 -131 -39 -251.5t-111 -217.5t-168 -169.5t-216 -111.5t-249 -39q-267 0 -479 162zM723 805
q0 -69 42.5 -114.5t108.5 -45.5t109 45.5t43 114.5t-43 114.5t-109 45.5t-108.5 -45.5t-42.5 -114.5z" />
    <glyph glyph-name="Ugrave" unicode="&#xd9;" horiz-adv-x="1771" 
d="M1645 1526v-692q0 -221 -52 -374.5t-159 -260.5q-114 -114 -258.5 -169t-290.5 -55q-150 0 -297 57.5t-258 168.5q-114 114 -158.5 272.5t-44.5 390.5v662h676v-707q0 -36 1 -58t5.5 -47t12.5 -38t23.5 -22t37.5 -9q51 0 68.5 48t17.5 190v643h676zM1075 1618h-207
l-342 268h412z" />
    <glyph glyph-name="Uacute" unicode="&#xda;" horiz-adv-x="1771" 
d="M1645 1526v-692q0 -221 -52 -374.5t-159 -260.5q-114 -114 -258.5 -169t-290.5 -55q-150 0 -297 57.5t-258 168.5q-114 114 -158.5 272.5t-44.5 390.5v662h676v-707q0 -36 1 -58t5.5 -47t12.5 -38t23.5 -22t37.5 -9q51 0 68.5 48t17.5 190v643h676zM696 1618l138 268h411
l-342 -268h-207z" />
    <glyph glyph-name="Ucircumflex" unicode="&#xdb;" horiz-adv-x="1771" 
d="M1645 1526v-692q0 -221 -52 -374.5t-159 -260.5q-114 -114 -258.5 -169t-290.5 -55q-150 0 -297 57.5t-258 168.5q-114 114 -158.5 272.5t-44.5 390.5v662h676v-707q0 -36 1 -58t5.5 -47t12.5 -38t23.5 -22t37.5 -9q51 0 68.5 48t17.5 190v643h676zM719 1622h-221
l188 264h397l191 -264h-240l-170 121z" />
    <glyph glyph-name="Udieresis" unicode="&#xdc;" horiz-adv-x="1771" 
d="M1645 1526v-692q0 -221 -52 -374.5t-159 -260.5q-114 -114 -258.5 -169t-290.5 -55q-150 0 -297 57.5t-258 168.5q-114 114 -158.5 272.5t-44.5 390.5v662h676v-707q0 -36 1 -58t5.5 -47t12.5 -38t23.5 -22t37.5 -9q51 0 68.5 48t17.5 190v643h676zM1006 1747q0 59 40 99
t99 40t99 -40t40 -99t-40 -99t-99 -40t-99 40t-40 99zM489 1747q0 58 40.5 98.5t99.5 40.5t99 -40t40 -99t-40 -99t-99 -40t-99.5 40.5t-40.5 98.5z" />
    <glyph glyph-name="Yacute" unicode="&#xdd;" horiz-adv-x="1855" 
d="M1266 0h-676v666l-582 860h684l236 -346l235 346h684l-581 -860v-666zM739 1618l138 268h411l-342 -268h-207z" />
    <glyph glyph-name="Thorn" unicode="&#xde;" horiz-adv-x="1705" 
d="M154 1526h675v-254h250q134 0 241 -33t174 -85.5t111.5 -122t62.5 -137.5t18 -138q0 -140 -68 -258.5t-185 -187t-255 -68.5q-91 0 -173 31.5t-176 101.5v-375h-675v1526zM829 942v-332q31 -8 56 -8q76 0 123 48t47 126q0 72 -37.5 119t-116.5 47h-72z" />
    <glyph glyph-name="germandbls" unicode="&#xdf;" horiz-adv-x="1622" 
d="M106 0v811q0 156 37 280t103 209.5t160.5 142t206 82t243.5 25.5q201 0 352 -54.5t235.5 -162t84.5 -256.5q0 -101 -47.5 -173t-149.5 -128q238 -107 238 -362q0 -69 -16 -131.5t-53.5 -119.5t-93 -98t-141 -65.5t-192.5 -24.5q-121 0 -246 25v422q28 -4 35 -4
q53 0 83 33.5t30 91.5q0 64 -30 96t-99 43v205q104 9 104 125q0 123 -112 123q-64 0 -88.5 -43.5t-24.5 -143.5v-948h-619z" />
    <glyph glyph-name="agrave" unicode="&#xe0;" horiz-adv-x="1449" 
d="M127 709v362q145 77 282.5 110t311.5 33q301 0 458.5 -128.5t157.5 -419.5v-666h-618v90q-59 -45 -141.5 -72.5t-159.5 -27.5q-138 0 -230 89.5t-92 225.5q0 156 114 253t298 97q108 0 211 -28q0 86 -65.5 132t-178.5 46q-90 0 -171 -22.5t-177 -73.5zM719 266v168
q-61 19 -101 19q-57 0 -90.5 -29t-33.5 -76q0 -49 36.5 -82t92.5 -33q57 0 96 33zM915 1282h-206l-342 268h411z" />
    <glyph glyph-name="aacute" unicode="&#xe1;" horiz-adv-x="1449" 
d="M127 709v362q145 77 282.5 110t311.5 33q301 0 458.5 -128.5t157.5 -419.5v-666h-618v90q-59 -45 -141.5 -72.5t-159.5 -27.5q-138 0 -230 89.5t-92 225.5q0 156 114 253t298 97q108 0 211 -28q0 86 -65.5 132t-178.5 46q-90 0 -171 -22.5t-177 -73.5zM719 266v168
q-61 19 -101 19q-57 0 -90.5 -29t-33.5 -76q0 -49 36.5 -82t92.5 -33q57 0 96 33zM537 1282l137 268h411l-342 -268h-206z" />
    <glyph glyph-name="acircumflex" unicode="&#xe2;" horiz-adv-x="1449" 
d="M127 709v362q145 77 282.5 110t311.5 33q301 0 458.5 -128.5t157.5 -419.5v-666h-618v90q-59 -45 -141.5 -72.5t-159.5 -27.5q-138 0 -230 89.5t-92 225.5q0 156 114 253t298 97q108 0 211 -28q0 86 -65.5 132t-178.5 46q-90 0 -171 -22.5t-177 -73.5zM719 266v168
q-61 19 -101 19q-57 0 -90.5 -29t-33.5 -76q0 -49 36.5 -82t92.5 -33q57 0 96 33zM559 1286h-221l188 264h398l190 -264h-240l-169 121z" />
    <glyph glyph-name="atilde" unicode="&#xe3;" horiz-adv-x="1449" 
d="M127 709v362q145 77 282.5 110t311.5 33q301 0 458.5 -128.5t157.5 -419.5v-666h-618v90q-59 -45 -141.5 -72.5t-159.5 -27.5q-138 0 -230 89.5t-92 225.5q0 156 114 253t298 97q108 0 211 -28q0 86 -65.5 132t-178.5 46q-90 0 -171 -22.5t-177 -73.5zM719 266v168
q-61 19 -101 19q-57 0 -90.5 -29t-33.5 -76q0 -49 36.5 -82t92.5 -33q57 0 96 33zM518 1290h-207q9 131 69.5 195.5t149.5 64.5q57 0 184 -31.5t160 -31.5q28 0 42 14t20 47h203q-6 -124 -64 -192t-157 -68q-65 0 -186 32t-148 32q-54 0 -66 -62z" />
    <glyph glyph-name="adieresis" unicode="&#xe4;" horiz-adv-x="1449" 
d="M127 709v362q145 77 282.5 110t311.5 33q301 0 458.5 -128.5t157.5 -419.5v-666h-618v90q-59 -45 -141.5 -72.5t-159.5 -27.5q-138 0 -230 89.5t-92 225.5q0 156 114 253t298 97q108 0 211 -28q0 86 -65.5 132t-178.5 46q-90 0 -171 -22.5t-177 -73.5zM719 266v168
q-61 19 -101 19q-57 0 -90.5 -29t-33.5 -76q0 -49 36.5 -82t92.5 -33q57 0 96 33zM846 1411q0 59 40 99t99 40t99 -40t40 -99t-40 -99t-99 -40t-99 40t-40 99zM330 1411q0 59 40 99t99 40t99 -40t40 -99t-40 -99t-99 -40t-99 40t-40 99z" />
    <glyph glyph-name="aring" unicode="&#xe5;" horiz-adv-x="1449" 
d="M127 709v362q145 77 282.5 110t311.5 33q301 0 458.5 -128.5t157.5 -419.5v-666h-618v90q-59 -45 -141.5 -72.5t-159.5 -27.5q-138 0 -230 89.5t-92 225.5q0 156 114 253t298 97q108 0 211 -28q0 86 -65.5 132t-178.5 46q-90 0 -171 -22.5t-177 -73.5zM719 266v168
q-61 19 -101 19q-57 0 -90.5 -29t-33.5 -76q0 -49 36.5 -82t92.5 -33q57 0 96 33zM725 1585q-40 0 -67 -27t-27 -67t27 -68t67 -28t68 28t28 68t-28 67t-68 27zM727 1700q88 0 148.5 -60.5t60.5 -148.5t-60.5 -149.5t-148.5 -61.5t-149.5 61.5t-61.5 149.5t61.5 148.5
t149.5 60.5z" />
    <glyph glyph-name="ae" unicode="&#xe6;" horiz-adv-x="2068" 
d="M2001 457v-205q-52 -59 -104.5 -103t-122.5 -84t-159.5 -61.5t-193.5 -21.5q-334 0 -536 178q-236 -178 -469 -178q-146 0 -236 88t-90 233q0 166 111.5 262.5t302.5 96.5q125 0 209 -35q-7 101 -67 146.5t-185 45.5q-170 0 -344 -96v364q252 142 549 142q236 0 374 -80
q119 80 312 80q108 0 205.5 -27.5t180.5 -85t143 -140t92 -199t28 -255.5h-629q35 -90 117 -142t188 -52q92 0 176.5 33.5t147.5 95.5zM1335 733h289q-6 92 -44 141.5t-103 49.5q-64 0 -104.5 -52.5t-37.5 -138.5zM713 258v178q-50 23 -97 23q-60 0 -96.5 -31t-36.5 -82
q0 -52 36.5 -87.5t90.5 -35.5q53 0 103 35z" />
    <glyph glyph-name="ccedilla" unicode="&#xe7;" horiz-adv-x="1343" 
d="M487 -100l37 55q40 17 93 26t92 7v4q-130 12 -235.5 53.5t-176 100t-118.5 134t-69.5 155t-21.5 163.5q0 129 48 243.5t135 201t220 136.5t293 50q223 0 449 -72v-528q-184 88 -338 88q-88 0 -138 -28t-50 -79q0 -56 55 -86t160 -30q87 0 172.5 17.5t138.5 45.5v-522
q-82 -26 -199.5 -40.5t-216.5 -10.5v-4q86 -3 139.5 -42t53.5 -98q0 -170 -369 -170q-181 0 -303 37q11 37 18 78q62 -10 105 -10q139 0 139 67q0 61 -113 58z" />
    <glyph glyph-name="egrave" unicode="&#xe8;" horiz-adv-x="1429" 
d="M1354 459v-211q-204 -266 -584 -266q-315 0 -505.5 173.5t-190.5 460.5q0 270 176 441.5t455 171.5q142 0 263 -47.5t209 -136t135.5 -223t41.5 -298.5h-631q32 -91 112.5 -143.5t184.5 -52.5q100 0 188.5 35t145.5 96zM686 735h291q-3 88 -43.5 139.5t-106.5 51.5
q-62 0 -103 -53.5t-38 -137.5zM905 1282h-207l-342 268h412z" />
    <glyph glyph-name="eacute" unicode="&#xe9;" horiz-adv-x="1429" 
d="M1354 459v-211q-204 -266 -584 -266q-315 0 -505.5 173.5t-190.5 460.5q0 270 176 441.5t455 171.5q142 0 263 -47.5t209 -136t135.5 -223t41.5 -298.5h-631q32 -91 112.5 -143.5t184.5 -52.5q100 0 188.5 35t145.5 96zM686 735h291q-3 88 -43.5 139.5t-106.5 51.5
q-62 0 -103 -53.5t-38 -137.5zM526 1282l138 268h411l-342 -268h-207z" />
    <glyph glyph-name="ecircumflex" unicode="&#xea;" horiz-adv-x="1429" 
d="M1354 459v-211q-204 -266 -584 -266q-315 0 -505.5 173.5t-190.5 460.5q0 270 176 441.5t455 171.5q142 0 263 -47.5t209 -136t135.5 -223t41.5 -298.5h-631q32 -91 112.5 -143.5t184.5 -52.5q100 0 188.5 35t145.5 96zM686 735h291q-3 88 -43.5 139.5t-106.5 51.5
q-62 0 -103 -53.5t-38 -137.5zM549 1286h-221l188 264h397l191 -264h-240l-170 121z" />
    <glyph glyph-name="edieresis" unicode="&#xeb;" horiz-adv-x="1429" 
d="M1354 459v-211q-204 -266 -584 -266q-315 0 -505.5 173.5t-190.5 460.5q0 270 176 441.5t455 171.5q142 0 263 -47.5t209 -136t135.5 -223t41.5 -298.5h-631q32 -91 112.5 -143.5t184.5 -52.5q100 0 188.5 35t145.5 96zM686 735h291q-3 88 -43.5 139.5t-106.5 51.5
q-62 0 -103 -53.5t-38 -137.5zM836 1411q0 59 40 99t99 40t99 -40t40 -99t-40 -99t-99 -40t-99 40t-40 99zM319 1411q0 58 40.5 98.5t99.5 40.5t99 -40t40 -99t-40 -99t-99 -40t-99.5 40.5t-40.5 98.5z" />
    <glyph glyph-name="igrave" unicode="&#xec;" horiz-adv-x="854" 
d="M737 1204v-1204h-618v1204q54 -32 139.5 -50.5t177.5 -18.5q184 0 301 69zM616 1282h-206l-342 268h411z" />
    <glyph glyph-name="iacute" unicode="&#xed;" horiz-adv-x="854" 
d="M737 1204v-1204h-618v1204q54 -32 139.5 -50.5t177.5 -18.5q184 0 301 69zM238 1282l137 268h411l-342 -268h-206z" />
    <glyph glyph-name="icircumflex" unicode="&#xee;" horiz-adv-x="854" 
d="M737 1204v-1204h-618v1204q54 -32 139.5 -50.5t177.5 -18.5q184 0 301 69zM260 1286h-221l188 264h398l190 -264h-240l-169 121z" />
    <glyph glyph-name="idieresis" unicode="&#xef;" horiz-adv-x="854" 
d="M737 1204v-1204h-618v1204q54 -32 139.5 -50.5t177.5 -18.5q184 0 301 69zM547 1411q0 59 40.5 99t98.5 40t98.5 -40t40.5 -99t-40.5 -99t-98.5 -40t-98.5 40t-40.5 99zM31 1411q0 59 40.5 99t98.5 40t98.5 -40t40.5 -99t-40.5 -99t-98.5 -40t-98.5 40t-40.5 99z" />
    <glyph glyph-name="eth" unicode="&#xf0;" horiz-adv-x="1482" 
d="M350 1382l275 103q-19 20 -36.5 37.5t-30 29.5t-32 26t-27 20t-30.5 19.5t-28.5 16.5t-34.5 18.5t-35 18.5v17h444q73 -42 125 -82l219 82l41 -115l-160 -62q187 -201 273 -409.5t86 -452.5q0 -147 -39 -264.5t-102.5 -192.5t-150 -125.5t-175.5 -71t-184 -20.5
q-134 0 -245 35t-187.5 95t-129.5 142t-77.5 173.5t-24.5 191.5q0 141 44.5 257t121 192.5t180 118t221.5 41.5q66 0 98 -5t74 -20q-45 89 -114 186l-320 -122zM741 758q-55 0 -95 -40t-40 -95q0 -56 40 -96t95 -40t95.5 40.5t40.5 95.5t-40 95t-96 40z" />
    <glyph glyph-name="ntilde" unicode="&#xf1;" horiz-adv-x="1642" 
d="M731 1204v-151q83 85 171.5 123t201.5 38q67 0 125 -11.5t117 -43.5t100.5 -82t67.5 -134.5t26 -194.5v-748h-584v702q0 150 -114 150q-58 0 -111 -39v-813h-618v1204h618zM614 1290h-206q9 131 69.5 195.5t149.5 64.5q57 0 184 -31.5t160 -31.5q27 0 41 14t20 47h203
q-6 -124 -64 -192t-157 -68q-65 0 -186 32t-148 32q-54 0 -66 -62z" />
    <glyph glyph-name="ograve" unicode="&#xf2;" horiz-adv-x="1472" 
d="M78 604q0 278 182.5 451.5t474.5 173.5q293 0 476.5 -173.5t183.5 -451.5q0 -277 -183.5 -449.5t-476.5 -172.5q-139 0 -259.5 44t-208.5 123t-138.5 196.5t-50.5 258.5zM600 616q0 -61 37.5 -99t97.5 -38q61 0 99 37.5t38 99.5t-38 100t-99 38q-60 0 -97.5 -38.5
t-37.5 -99.5zM926 1282h-207l-342 268h411z" />
    <glyph glyph-name="oacute" unicode="&#xf3;" horiz-adv-x="1472" 
d="M78 604q0 278 182.5 451.5t474.5 173.5q293 0 476.5 -173.5t183.5 -451.5q0 -277 -183.5 -449.5t-476.5 -172.5q-139 0 -259.5 44t-208.5 123t-138.5 196.5t-50.5 258.5zM600 616q0 -61 37.5 -99t97.5 -38q61 0 99 37.5t38 99.5t-38 100t-99 38q-60 0 -97.5 -38.5
t-37.5 -99.5zM547 1282l137 268h412l-342 -268h-207z" />
    <glyph glyph-name="ocircumflex" unicode="&#xf4;" horiz-adv-x="1472" 
d="M78 604q0 278 182.5 451.5t474.5 173.5q293 0 476.5 -173.5t183.5 -451.5q0 -277 -183.5 -449.5t-476.5 -172.5q-139 0 -259.5 44t-208.5 123t-138.5 196.5t-50.5 258.5zM600 616q0 -61 37.5 -99t97.5 -38q61 0 99 37.5t38 99.5t-38 100t-99 38q-60 0 -97.5 -38.5
t-37.5 -99.5zM569 1286h-221l189 264h397l190 -264h-239l-170 121z" />
    <glyph glyph-name="otilde" unicode="&#xf5;" horiz-adv-x="1472" 
d="M78 604q0 278 182.5 451.5t474.5 173.5q293 0 476.5 -173.5t183.5 -451.5q0 -277 -183.5 -449.5t-476.5 -172.5q-139 0 -259.5 44t-208.5 123t-138.5 196.5t-50.5 258.5zM600 616q0 -61 37.5 -99t97.5 -38q61 0 99 37.5t38 99.5t-38 100t-99 38q-60 0 -97.5 -38.5
t-37.5 -99.5zM528 1290h-206q9 131 69.5 195.5t149.5 64.5q57 0 184 -31.5t160 -31.5q27 0 41 14t20 47h203q-6 -124 -64 -192t-157 -68q-65 0 -186 32t-148 32q-54 0 -66 -62z" />
    <glyph glyph-name="odieresis" unicode="&#xf6;" horiz-adv-x="1472" 
d="M78 604q0 278 182.5 451.5t474.5 173.5q293 0 476.5 -173.5t183.5 -451.5q0 -277 -183.5 -449.5t-476.5 -172.5q-139 0 -259.5 44t-208.5 123t-138.5 196.5t-50.5 258.5zM600 616q0 -61 37.5 -99t97.5 -38q61 0 99 37.5t38 99.5t-38 100t-99 38q-60 0 -97.5 -38.5
t-37.5 -99.5zM856 1411q0 59 40 99t99 40t99.5 -40.5t40.5 -98.5t-40.5 -98.5t-99.5 -40.5t-99 40t-40 99zM340 1411q0 59 40 99t99 40t99 -40t40 -99t-40 -99t-99 -40t-99 40t-40 99z" />
    <glyph glyph-name="divide" unicode="&#xf7;" horiz-adv-x="1366" 
d="M684 459q76 0 130 -54t54 -131t-54 -131.5t-130 -54.5t-131 55t-55 131t54.5 130.5t131.5 54.5zM684 1300q76 0 130 -54t54 -130q0 -77 -54 -131.5t-130 -54.5t-131 55t-55 131t54.5 130t131.5 54zM109 856h1148v-324h-1148v324z" />
    <glyph glyph-name="oslash" unicode="&#xf8;" horiz-adv-x="1472" 
d="M344 88l-151 -160l-132 117l152 162q-59 62 -97 169t-38 228q0 278 182.5 451.5t474.5 173.5q105 0 201 -25t160 -65l143 151l129 -119l-131 -139q158 -184 158 -428q0 -277 -183.5 -449.5t-476.5 -172.5q-114 0 -217 30.5t-174 75.5zM600 616q0 -61 37.5 -99t97.5 -38
q61 0 99 37.5t38 99.5t-38 100t-99 38q-60 0 -97.5 -38.5t-37.5 -99.5z" />
    <glyph glyph-name="ugrave" unicode="&#xf9;" horiz-adv-x="1642" 
d="M1518 1204v-1204h-592v211h-4q-95 -119 -190 -170t-222 -51q-86 0 -160.5 25.5t-133.5 76t-92.5 134t-33.5 190.5v788h584v-649q0 -80 25.5 -122t86.5 -42q75 0 113 64v749h619zM1012 1282h-207l-342 268h411z" />
    <glyph glyph-name="uacute" unicode="&#xfa;" horiz-adv-x="1642" 
d="M1518 1204v-1204h-592v211h-4q-95 -119 -190 -170t-222 -51q-86 0 -160.5 25.5t-133.5 76t-92.5 134t-33.5 190.5v788h584v-649q0 -80 25.5 -122t86.5 -42q75 0 113 64v749h619zM633 1282l137 268h412l-342 -268h-207z" />
    <glyph glyph-name="ucircumflex" unicode="&#xfb;" horiz-adv-x="1642" 
d="M1518 1204v-1204h-592v211h-4q-95 -119 -190 -170t-222 -51q-86 0 -160.5 25.5t-133.5 76t-92.5 134t-33.5 190.5v788h584v-649q0 -80 25.5 -122t86.5 -42q75 0 113 64v749h619zM655 1286h-221l189 264h397l190 -264h-239l-170 121z" />
    <glyph glyph-name="udieresis" unicode="&#xfc;" horiz-adv-x="1642" 
d="M1518 1204v-1204h-592v211h-4q-95 -119 -190 -170t-222 -51q-86 0 -160.5 25.5t-133.5 76t-92.5 134t-33.5 190.5v788h584v-649q0 -80 25.5 -122t86.5 -42q75 0 113 64v749h619zM942 1411q0 59 40 99t99 40t99.5 -40.5t40.5 -98.5t-40.5 -98.5t-99.5 -40.5t-99 40t-40 99
zM426 1411q0 59 40 99t99 40t99.5 -40.5t40.5 -98.5t-40.5 -98.5t-99.5 -40.5t-99 40t-40 99z" />
    <glyph glyph-name="yacute" unicode="&#xfd;" horiz-adv-x="1515" 
d="M856 -338h-672l248 586l-424 956h615l145 -321l139 321h600zM569 1282l138 268h411l-342 -268h-207z" />
    <glyph glyph-name="thorn" unicode="&#xfe;" horiz-adv-x="1642" 
d="M739 1516v-404q138 102 297 102q150 0 271 -76.5t189.5 -212t68.5 -304.5q0 -181 -74 -325.5t-205.5 -225t-296.5 -80.5q-127 0 -250 53v-381h-618v1854h618zM739 674v-217q56 -29 107 -29q56 0 90.5 42.5t34.5 109.5t-34.5 109t-90.5 42q-62 0 -107 -57z" />
    <glyph glyph-name="ydieresis" unicode="&#xff;" horiz-adv-x="1515" 
d="M856 -338h-672l248 586l-424 956h615l145 -321l139 321h600zM879 1411q0 59 40.5 99t98.5 40t98.5 -40t40.5 -99t-40.5 -99t-98.5 -40t-98.5 40t-40.5 99zM362 1411q0 58 40.5 98.5t99.5 40.5q58 0 98.5 -40t40.5 -99t-40.5 -99t-98.5 -40q-59 0 -99.5 40.5t-40.5 98.5z
" />
    <glyph glyph-name="dotlessi" unicode="&#x131;" horiz-adv-x="854" 
d="M737 1204v-1204h-618v1204q54 -32 139.5 -50.5t177.5 -18.5q184 0 301 69z" />
    <glyph glyph-name="Lslash" unicode="&#x141;" horiz-adv-x="1429" 
d="M147 0v367l-182 -142v287l182 141v873h676v-355l213 164v-286l-213 -164v-502h592v-383h-1268z" />
    <glyph glyph-name="lslash" unicode="&#x142;" horiz-adv-x="1087" 
d="M854 0h-618v397l-224 -178v289l224 178v840h618v-338l221 178v-289l-221 -178v-899z" />
    <glyph glyph-name="OE" unicode="&#x152;" horiz-adv-x="2347" 
d="M2302 383v-383h-1348q-136 0 -253 25.5t-203.5 69.5t-156 105t-115 128.5t-76 142.5t-43.5 146t-13 141q0 100 26 200.5t89 204.5t156.5 183t243 129.5t333.5 50.5h1360v-383h-592v-185h412v-383h-412v-192h592zM1034 795q0 75 -44 121.5t-113 46.5t-114.5 -46.5
t-45.5 -117.5q0 -69 46 -114.5t116 -45.5q68 0 111.5 43.5t43.5 112.5z" />
    <glyph glyph-name="oe" unicode="&#x153;" horiz-adv-x="2217" 
d="M2157 459v-201q-75 -124 -235.5 -200t-344.5 -76q-127 0 -239.5 30.5t-188.5 87.5q-73 -57 -181 -87.5t-233 -30.5q-130 0 -247 42t-206.5 118.5t-142.5 195t-53 260.5q0 285 181 458t483 173q230 0 383 -105q168 105 376 105q147 0 269 -48t208.5 -137.5t131.5 -223.5
t39 -298h-629q81 -194 305 -194q85 0 171.5 35t152.5 96zM1491 733h291q-5 94 -42.5 144.5t-103.5 50.5q-68 0 -105 -50t-40 -145zM881 618q0 62 -37.5 100t-98.5 38q-60 0 -98.5 -39t-38.5 -99t40 -97.5t102 -37.5q58 0 94.5 37.5t36.5 97.5z" />
    <glyph glyph-name="Scaron" unicode="&#x160;" horiz-adv-x="1492" 
d="M1430 1448l-168 -481q-77 106 -176 164.5t-203 58.5q-59 0 -89 -24.5t-30 -65.5q0 -31 43.5 -60.5t114 -57.5t147 -57.5t155.5 -72.5t126 -90q106 -106 106 -285q0 -242 -183.5 -372t-549.5 -130q-401 0 -698 115l165 510q68 -107 175 -175.5t208 -68.5q47 0 80 24.5
t33 61.5q0 36 -33 65.5t-85.5 52t-116.5 47t-128 60.5t-116.5 82t-85.5 120.5t-33 168.5q0 253 185 382.5t546 129.5q155 0 322 -28t289 -74zM913 1886h222l-189 -264h-397l-191 264h240l170 -121z" />
    <glyph glyph-name="scaron" unicode="&#x161;" horiz-adv-x="1259" 
d="M12 117l138 338q62 -83 152 -133t179 -50q54 0 86.5 24t32.5 62q0 40 -29.5 65.5t-80 41.5t-106.5 31t-121 47t-111 78q-97 97 -97 229q0 180 154 279.5t434 99.5q317 0 537 -103l-148 -307q-68 62 -142 96.5t-140 34.5q-45 0 -73 -19.5t-28 -51.5q0 -41 31.5 -66
t85.5 -39t113.5 -28.5t127.5 -46t115 -78.5q92 -92 92 -238q0 -99 -43.5 -177t-119 -126t-171.5 -73t-206 -25q-152 0 -330.5 36t-331.5 99zM797 1550h221l-189 -264h-397l-190 264h239l170 -120z" />
    <glyph glyph-name="Ydieresis" unicode="&#x178;" horiz-adv-x="1855" 
d="M1266 0h-676v666l-582 860h684l236 -346l235 346h684l-581 -860v-666zM1049 1747q0 59 40.5 99t98.5 40t98.5 -40t40.5 -99t-40.5 -99t-98.5 -40t-98.5 40t-40.5 99zM532 1747q0 58 40.5 98.5t99.5 40.5q58 0 98.5 -40t40.5 -99t-40.5 -99t-98.5 -40q-59 0 -99.5 40.5
t-40.5 98.5z" />
    <glyph glyph-name="Zcaron" unicode="&#x17d;" horiz-adv-x="1685" 
d="M1636 383v-383h-1607l702 1143h-645v383h1585l-702 -1143h667zM1010 1886h221l-189 -264h-397l-190 264h239l170 -121z" />
    <glyph glyph-name="zcaron" unicode="&#x17e;" horiz-adv-x="1343" 
d="M1307 403v-403h-1289l435 819h-379v385h1239l-426 -801h420zM840 1550h221l-189 -264h-397l-190 264h239l170 -120z" />
    <glyph glyph-name="florin" unicode="&#x192;" horiz-adv-x="1812" 
d="M1346 1016h282l-90 -311h-281l-270 -945q-79 -276 -518 -276q-210 0 -489 61l124 338q147 -39 224 -39q60 0 89.5 26t47.5 87l209 748h-275l84 311h279q40 172 77 262.5t89 142.5q66 66 181.5 94.5t240.5 28.5q118 0 257 -19t238 -46l-116 -324q-136 41 -224 41
q-66 0 -100 -42.5t-59 -137.5z" />
    <glyph glyph-name="circumflex" unicode="&#x2c6;" horiz-adv-x="681" 
d="M174 1286h-221l188 264h398l190 -264h-240l-170 121z" />
    <glyph glyph-name="caron" unicode="&#x2c7;" horiz-adv-x="681" 
d="M508 1550h221l-188 -264h-398l-190 264h240l169 -120z" />
    <glyph glyph-name="breve" unicode="&#x2d8;" horiz-adv-x="681" 
d="M664 1602h73q-37 -145 -137.5 -229.5t-259.5 -84.5q-93 0 -165.5 28t-117 76.5t-70 99t-40.5 110.5h69q31 -70 99.5 -97.5t224.5 -27.5q111 0 172.5 12t93.5 37t58 76z" />
    <glyph glyph-name="dotaccent" unicode="&#x2d9;" horiz-adv-x="681" 
d="M203 1411q0 59 40.5 99t98.5 40t98.5 -40t40.5 -99t-40.5 -99t-98.5 -40t-98.5 40t-40.5 99z" />
    <glyph glyph-name="ring" unicode="&#x2da;" horiz-adv-x="681" 
d="M340 1585q-40 0 -67 -27t-27 -67t27 -68t67 -28t68 28t28 68t-28 67t-68 27zM342 1700q88 0 148.5 -60.5t60.5 -148.5t-60.5 -149.5t-148.5 -61.5t-149.5 61.5t-61.5 149.5t61.5 148.5t149.5 60.5z" />
    <glyph glyph-name="ogonek" unicode="&#x2db;" horiz-adv-x="681" 
d="M143 23h238q-29 -80 -29 -127q0 -66 51.5 -102t145.5 -36q60 0 178 23v-139q-173 -39 -295 -39q-164 0 -260 56t-96 151q0 79 67 213z" />
    <glyph glyph-name="tilde" unicode="&#x2dc;" horiz-adv-x="681" 
d="M133 1290h-207q9 131 69.5 195.5t149.5 64.5q57 0 184 -31.5t160 -31.5q27 0 41.5 14t20.5 47h203q-6 -124 -64.5 -192t-157.5 -68q-65 0 -185.5 32t-147.5 32q-54 0 -66 -62z" />
    <glyph glyph-name="hungarumlaut" unicode="&#x2dd;" horiz-adv-x="681" 
d="M459 1282l137 268h412l-342 -268h-207zM-29 1282l138 268h411l-342 -268h-207z" />
    <glyph glyph-name="endash" unicode="&#x2013;" horiz-adv-x="1024" 
d="M-12 772h1048v-518h-1048v518z" />
    <glyph glyph-name="emdash" unicode="&#x2014;" horiz-adv-x="2048" 
d="M-12 772h2072v-518h-2072v518z" />
    <glyph glyph-name="quoteleft" unicode="&#x2018;" horiz-adv-x="831" 
d="M629 1550l18 -12q-66 -38 -109 -108t-49 -148q267 -80 267 -319q0 -148 -98 -249.5t-240 -101.5q-145 0 -237.5 101.5t-92.5 261.5q0 105 45 204.5t119.5 175t173 127.5t203.5 68z" />
    <glyph glyph-name="quoteright" unicode="&#x2019;" horiz-adv-x="831" 
d="M203 612l-19 13q66 38 109 108t49 148q-266 79 -266 319q0 148 97.5 249t240.5 101q145 0 237 -101t92 -261q0 -105 -44.5 -204.5t-119 -175.5t-173 -128t-203.5 -68z" />
    <glyph glyph-name="quotesinglbase" unicode="&#x201a;" horiz-adv-x="831" 
d="M215 -289l-18 13q66 38 108.5 108t48.5 148q-266 79 -266 319q0 148 97.5 249t240.5 101q145 0 237.5 -101t92.5 -261q0 -105 -45 -204.5t-119.5 -175.5t-173 -128t-203.5 -68z" />
    <glyph glyph-name="quotedblleft" unicode="&#x201c;" horiz-adv-x="1685" 
d="M1483 1550l18 -12q-66 -38 -109 -108t-49 -148q267 -80 267 -319q0 -148 -98 -249.5t-240 -101.5q-145 0 -237.5 101.5t-92.5 261.5q0 105 45 204.5t119.5 175t173 127.5t203.5 68zM627 1550l18 -12q-66 -38 -109 -108t-49 -148q267 -80 267 -319q0 -148 -98 -249.5
t-240 -101.5q-145 0 -237.5 101.5t-92.5 261.5q0 105 45 204.5t119.5 175t173 127.5t203.5 68z" />
    <glyph glyph-name="quotedblright" unicode="&#x201d;" horiz-adv-x="1685" 
d="M1059 612l-19 13q66 38 109 108t49 148q-266 79 -266 319q0 148 97.5 249t240.5 101q145 0 237 -101t92 -261q0 -105 -44.5 -204.5t-119 -175.5t-173 -128t-203.5 -68zM203 612l-19 13q66 38 109 108t49 148q-266 79 -266 319q0 148 97.5 249t240.5 101q145 0 237 -101
t92 -261q0 -105 -44.5 -204.5t-119 -175.5t-173 -128t-203.5 -68z" />
    <glyph glyph-name="quotedblbase" unicode="&#x201e;" horiz-adv-x="1685" 
d="M1069 -289l-18 13q66 38 108.5 108t48.5 148q-266 79 -266 319q0 148 97.5 249t240.5 101q145 0 237.5 -101t92.5 -261q0 -105 -45 -204.5t-119.5 -175.5t-173 -128t-203.5 -68zM213 -289l-18 13q66 38 108.5 108t48.5 148q-266 79 -266 319q0 148 97.5 249t240.5 101
q145 0 237.5 -101t92.5 -261q0 -105 -45 -204.5t-119.5 -175.5t-173 -128t-203.5 -68z" />
    <glyph glyph-name="dagger" unicode="&#x2020;" horiz-adv-x="1193" 
d="M838 1501l-86 -397l333 80q50 -131 50 -242q0 -110 -50 -233l-333 77l112 -1077q-125 -47 -268 -47q-141 0 -266 47l112 1077l-333 -77q-48 125 -48 233t48 242l333 -80l-86 397q118 49 240 49q124 0 242 -49z" />
    <glyph glyph-name="daggerdbl" unicode="&#x2021;" horiz-adv-x="1193" 
d="M838 1501l-86 -350l333 78q50 -129 50 -232q0 -108 -50 -219l-333 76l43 -248l-43 -248l333 76q50 -111 50 -219q0 -104 -50 -233l-333 79l86 -350q-118 -49 -242 -49q-122 0 -240 49l86 350l-333 -79q-48 123 -48 233q0 112 48 219l333 -76l-43 248l43 248l-333 -76
q-48 107 -48 219q0 109 48 232l333 -78l-86 350q118 49 240 49q124 0 242 -49z" />
    <glyph glyph-name="bullet" unicode="&#x2022;" horiz-adv-x="1024" 
d="M512 1053q136 0 234 -97.5t98 -234.5t-98 -234.5t-234 -97.5t-234 97.5t-98 234.5t98 234.5t234 97.5z" />
    <glyph glyph-name="ellipsis" unicode="&#x2026;" horiz-adv-x="2048" 
d="M342 496q107 0 183.5 -76.5t76.5 -183.5t-76.5 -184t-183.5 -77t-183.5 77t-76.5 184t76.5 183.5t183.5 76.5zM1024 496q107 0 183.5 -76.5t76.5 -183.5t-76.5 -184t-183.5 -77t-183.5 77t-76.5 184t76.5 183.5t183.5 76.5zM1706 496q107 0 183.5 -76.5t76.5 -183.5
t-76.5 -184t-183.5 -77t-183.5 77t-76.5 184t76.5 183.5t183.5 76.5z" />
    <glyph glyph-name="perthousand" unicode="&#x2030;" horiz-adv-x="3201" 
d="M426 1161q0 -37 26 -60.5t66 -23.5q41 0 67.5 23.5t26.5 60.5q0 35 -26.5 58.5t-67.5 23.5q-40 0 -66 -23.5t-26 -58.5zM989 1139q0 -173 -136 -291.5t-335 -118.5t-334 118t-135 292q0 175 135 293t334 118q131 0 239 -54t170 -148t62 -209zM571 -25l791 1575h225
l-788 -1575h-228zM3148 395q0 -173 -135.5 -291t-335.5 -118q-199 0 -334 118t-135 291q0 175 135 293.5t334 118.5q131 0 239 -54t170 -148.5t62 -209.5zM2585 418q0 -37 26 -60.5t66 -23.5q41 0 67.5 23.5t26.5 60.5q0 35 -26.5 58.5t-67.5 23.5q-40 0 -66 -23.5
t-26 -58.5zM2122 395q0 -173 -135.5 -291t-335.5 -118q-199 0 -334 118t-135 291q0 175 135 293.5t334 118.5q131 0 239 -54t170 -148.5t62 -209.5zM1559 418q0 -37 26 -60.5t66 -23.5q41 0 67.5 23.5t26.5 60.5q0 35 -26.5 58.5t-67.5 23.5q-40 0 -66 -23.5t-26 -58.5z" />
    <glyph glyph-name="guilsinglleft" unicode="&#x2039;" horiz-adv-x="747" 
d="M510 606l190 -534h-413l-267 534l267 535h413z" />
    <glyph glyph-name="guilsinglright" unicode="&#x203a;" horiz-adv-x="747" 
d="M238 606l-191 535h414l266 -535l-266 -534h-414z" />
    <glyph glyph-name="fraction" unicode="&#x2044;" horiz-adv-x="106" 
d="M-457 -25l791 1575h227l-790 -1575h-228z" />
    <glyph glyph-name="trademark" unicode="&#x2122;" horiz-adv-x="2048" 
d="M82 1526h801v-195h-283v-620h-235v620h-283v195zM975 1526h354l113 -447h4l117 447h352v-815h-225v575h-4l-150 -575h-184l-148 575h-4v-575h-225v815z" />
    <glyph glyph-name="minus" unicode="&#x2212;" horiz-adv-x="1366" 
d="M109 856h1146v-324h-1146v324z" />
    <glyph glyph-name="fi" unicode="&#xfb01;" 
d="M1022 586h-231v-586h-619v586h-127v254h135q-5 145 29.5 264.5t96.5 201t148.5 137.5t183 81.5t202.5 25.5q96 0 182 -24v-322q129 -69 317 -69q92 0 172 19.5t129 49.5v-1204h-618v586zM1022 840v135q-46 37 -102 37q-58 0 -95 -47t-34 -125h231zM1286 1376q0 72 52 123
t124 51t123 -51t51 -123t-51 -124t-123 -52t-124 52t-52 124z" />
    <glyph glyph-name="fl" unicode="&#xfb02;" 
d="M1022 586h-231v-586h-619v586h-127v254h135q-5 150 31.5 272t100.5 202t152.5 134.5t184 78t199.5 23.5q90 0 180 -24h612v-1526h-618v586zM1022 840v135q-46 37 -102 37q-58 0 -95 -47t-34 -125h231z" />
    </font>
</defs>
</svg>
