<?xml version="1.0" standalone="no"?>
<!DOCTYPE svg PUBLIC "-//W3C//DTD SVG 1.1//EN" "http://www.w3.org/Graphics/SVG/1.1/DTD/svg11.dtd" >
<svg xmlns="http://www.w3.org/2000/svg" xmlns:xlink="http://www.w3.org/1999/xlink" version="1.1">
<metadata>
Created by FontForge 20170731 at Thu Nov  3 13:37:14 2022
 By Aleksey,,,
Copyright (c) 2020 by Eino Korkala &#38; Daniel Coull. All rights reserved.
</metadata>
<defs>
<font id="ClimateCrisis-1990" horiz-adv-x="0" >
  <font-face 
    font-family="Climate Crisis 1990"
    font-weight="800"
    font-stretch="normal"
    units-per-em="2048"
    panose-1="0 0 9 0 0 0 0 0 0 0"
    ascent="1638"
    descent="-410"
    x-height="1221"
    cap-height="1491"
    bbox="-1458 -580 2972 2628"
    underline-thickness="102"
    underline-position="-307"
    unicode-range="U+0020-2212"
  />
<missing-glyph horiz-adv-x="1613" 
d="M98 1516h1420v-1741h-1420v1741zM1382 -90v1470h-1146v-1470h1146zM653 301l-92 82l174 262l-174 262l92 82l156 -233l156 233l92 -82l-174 -262l174 -262l-92 -82l-156 234z" />
    <glyph glyph-name=".notdef" horiz-adv-x="1613" 
d="M98 1516h1420v-1741h-1420v1741zM1382 -90v1470h-1146v-1470h1146zM653 301l-92 82l174 262l-174 262l92 82l156 -233l156 233l92 -82l-174 -262l174 -262l-92 -82l-156 234z" />
    <glyph glyph-name=".null" 
 />
    <glyph glyph-name="nonmarkingreturn" horiz-adv-x="682" 
 />
    <glyph glyph-name="space" unicode=" " horiz-adv-x="409" 
 />
    <glyph glyph-name="exclam" unicode="!" horiz-adv-x="925" 
d="M109 481q0 765 -9 1016h742q0 -169 -15.5 -508t-15.5 -508h-702zM838 391v-368h-752v233q460 75 752 135z" />
    <glyph glyph-name="quotedbl" unicode="&#x22;" horiz-adv-x="1540" 
d="M709 887h-588v600h588v-600zM1419 887h-585v600h585v-600z" />
    <glyph glyph-name="numbersign" unicode="#" horiz-adv-x="2095" 
d="M2042 827h-227h-5.5h-7t-8 -0.5t-8.5 -2t-8 -3.5t-8.5 -6t-7 -9t-6 -12t-3.5 -16l-24 -174q-5 -16 -1 -26.5t5.5 -16.5t10.5 -8.5t14 -3t16 -0.5h251v-348h-307q-39 0 -45 -41l-37 -281h-546l38 279q1 15 -3 24.5t-13 13t-15 4.5t-16 1h-182q-39 0 -45 -41l-37 -281h-547
l41 279q4 21 -2 31.5t-12 12t-16 1.5h-213v348h249h3q11 0 17.5 1.5t14 13.5t10.5 36l27 174q2 15 0 26t-6 15.5t-9 7.5t-9.5 2t-5.5 0h-1h-266v349h307q13 0 19 1t15 11.5t11 32.5l37 274h545l-35 -272q-2 -27 10 -38t52 -11h164q14 0 21 1.5t15.5 12.5t10.5 33l36 274h547
l-37 -272q-2 -18 1.5 -28t15.5 -14t19 -4.5t26 -0.5h170v-349zM1116 547q60 0 66 55l26 174q7 45 -39 50q-7 1 -34 1h-148q-46 0 -53 -49l-25 -174q-3 -20 2 -32.5t16 -16.5t16 -5t11 -1z" />
    <glyph glyph-name="dollar" unicode="$" horiz-adv-x="2129" 
d="M2058 473q0 -96 -51 -176t-139 -135t-209 -94t-258 -57.5t-289 -20.5v-162h-115v164q-264 7 -465 59.5t-322 157t-124 248.5l748 106q-9 -61 38 -105.5t125 -62.5v234h-55q-187 0 -337.5 22t-250 60.5t-164 91.5t-89.5 112.5t-17 126.5q56 159 185.5 272t314 171
t413.5 63v185h115v-185q393 -8 627 -140t246 -357l-730 -97q26 78 -15 126.5t-128 56.5v-244h31q208 4 366.5 -14t261.5 -53t168 -90t92 -118.5t27 -144.5zM819 987q0 -94 170 -94h8v240q-79 -13 -128.5 -50.5t-49.5 -95.5zM1112 389q95 6 149 48.5t54 94.5q0 49 -46.5 72.5
t-156.5 24.5v-240z" />
    <glyph glyph-name="percent" unicode="%" horiz-adv-x="2588" 
d="M657 672q-291 0 -431 106.5t-140 292.5q0 92 31.5 170t97 141.5t178.5 99.5t264 36q121 0 214 -20.5t152.5 -55.5t100 -87.5t59.5 -110t27 -130.5q13 -102 -8.5 -180t-83.5 -138.5t-178 -92t-283 -31.5zM1307 840q115 349 200 651h535q-53 -53 -160.5 -159t-173 -171
t-152 -156.5t-153.5 -168.5zM647 956q109 0 169 47t36 109q-20 64 -63.5 95.5t-124.5 31.5q-93 0 -149 -35t-56 -100q0 -62 47 -105t141 -43zM1937 20q-167 0 -282.5 32t-177.5 92t-84 138.5t-9 180.5q8 73 27.5 130.5t59.5 110t100 87t152.5 55t213.5 20.5q151 0 264 -36
t178.5 -99t97.5 -141t32 -170q0 -186 -140 -293t-432 -107zM549 49q54 54 160.5 159t172 170t152 156t154.5 168l94 -2q-126 -383 -199 -651h-534zM1948 305q94 0 141 43t47 105q0 65 -56 100t-149 35q-81 0 -124.5 -31.5t-63.5 -95.5q-22 -62 38 -109t167 -47z" />
    <glyph glyph-name="ampersand" unicode="&#x26;" horiz-adv-x="2011" 
d="M1917 678q-24 -124 -90 -240l74 -30q-74 -207 -191 -381q-47 36 -164 116q-245 -161 -577 -161q-405 0 -620 106.5t-247 298.5q-7 52 17 104.5t76 101t145.5 85t214.5 49.5l-8 4q-80 46 -132.5 83.5t-98.5 84.5t-67.5 101t-21.5 118q0 62 28.5 120t90 110t150 90.5
t216.5 61t281 22.5q347 0 535.5 -100t212.5 -273q28 -149 -174.5 -237.5t-567.5 -73.5l13 -7q306 -161 436 -223q61 125 68 223zM1030 1190q-89 0 -144 -33.5t-55 -109.5q0 -47 38.5 -98.5t105.5 -94.5q82 3 155.5 66.5t73.5 132.5q0 64 -49.5 100.5t-124.5 36.5zM1006 305
q108 0 204 47q-173 102 -503 289q-60 -51 -60 -111q0 -90 96 -157.5t263 -67.5z" />
    <glyph glyph-name="quotesingle" unicode="'" horiz-adv-x="763" 
d="M676 887h-588v600h588v-600z" />
    <glyph glyph-name="parenleft" unicode="(" horiz-adv-x="845" 
d="M805 1597h-490q-186 -386 -229 -876q-10 -102 3 -209t50.5 -224t73 -206t94.5 -221h498q-85 200 -123.5 412.5t-52.5 465.5q-19 399 176 858z" />
    <glyph glyph-name="parenright" unicode=")" horiz-adv-x="835" 
d="M37 -139h489q184 378 232 876q9 102 -4.5 209.5t-50 223t-73.5 207t-95 220.5h-498q85 -201 124.5 -414t53.5 -464q19 -395 -178 -858z" />
    <glyph glyph-name="asterisk" unicode="*" horiz-adv-x="1089" 
d="M39 1018q52 144 119 334q26 -11 71.5 -36t85.5 -43t78 -22q5 44 -9 140t-15 110h352q-1 -11 -19 -107t-6 -143q46 9 134.5 52.5t101.5 48.5q67 -182 117 -334q-22 -7 -108 -23t-126 -37q15 -42 80.5 -112.5t77.5 -87.5q-199 -148 -281 -211q-16 21 -62.5 104.5
t-82.5 114.5q-38 -32 -87.5 -117t-62.5 -102q-216 164 -280 211q16 21 55 57.5t65.5 70.5t34.5 70q-42 23 -128 39.5t-105 22.5z" />
    <glyph glyph-name="plus" unicode="+" horiz-adv-x="1214" 
d="M1139 838v-365h-330v-305h-395v305h-338v365h338v305h395v-305h330z" />
    <glyph glyph-name="comma" unicode="," horiz-adv-x="821" 
d="M735 -86l-649 127v485h649v-612z" />
    <glyph glyph-name="hyphen" unicode="-" horiz-adv-x="835" 
d="M63 895h709v-426h-709v426z" />
    <glyph glyph-name="period" unicode="." horiz-adv-x="823" 
d="M88 49v477h647v-477h-647z" />
    <glyph glyph-name="slash" unicode="/" horiz-adv-x="1275" 
d="M1176 1487q-183 -667 -390 -1585h-710q73 214 141.5 455.5t99.5 368t96.5 416t78.5 345.5h684z" />
    <glyph glyph-name="zero" unicode="0" horiz-adv-x="2289" 
d="M1135 -6q-272 0 -476 53.5t-328 152t-184.5 230t-60.5 295.5q0 134 35.5 252.5t115.5 224t199.5 181t298.5 119.5t402 44q160 0 292.5 -19t232.5 -53t178 -85.5t131 -112t90.5 -137.5t57.5 -156t31 -174q11 -104 7.5 -197.5t-34 -175.5t-81 -150.5t-133.5 -122.5
t-192 -91.5t-256 -57.5t-326 -20zM1118 541q186 0 286 83.5t56 180.5q-39 103 -111 156t-208 53q-155 0 -244.5 -59.5t-89.5 -163.5q0 -45 16 -86.5t50 -79.5t97.5 -61t147.5 -23z" />
    <glyph glyph-name="one" unicode="1" horiz-adv-x="1118" 
d="M266 49q53 487 53 830q0 19 -16.5 26.5t-50.5 7.5h-189l259 574h675q-6 -157 -6 -356t3 -342.5t9.5 -385.5t8.5 -354h-746z" />
    <glyph glyph-name="two" unicode="2" horiz-adv-x="2070" 
d="M750 616q75 18 130.5 33.5t128.5 38t124.5 46.5t99 52.5t72 62t24.5 69.5q0 95 -80 146.5t-192 51.5q-131 0 -220 -49.5t-89 -136.5q0 -54 45.5 -109t150.5 -94l-891 166q-11 159 71.5 289.5t229 213.5t333 128t390.5 45q142 0 277 -20t254 -62t208.5 -101t141.5 -141.5
t51 -179.5q-1 -153 -130.5 -252t-409.5 -149.5t-719 -47.5zM1997 510v-461l-1909 4v422q351 32 557 100q521 -65 1352 -65z" />
    <glyph glyph-name="three" unicode="3" horiz-adv-x="2234" 
d="M1808 872q-20 -8 -30 -15t-14 -15t7 -16.5t37 -18.5q363 -63 363 -332q0 -195 -230 -326q-224 -128 -585 -157q-368 -30 -690 56q-343 92 -487 282q-106 141 -85 319l764 86q-37 -120 75 -187q96 -57 243 -49q144 7 219 71q49 42 49 98q0 65 -54.5 92.5t-195.5 27.5
l-2 31q131 0 183 26t52 81q0 106 -159 148t-302.5 -21t-107.5 -209l-772 125q19 264 305 421q256 140 649 162q356 19 655 -65q283 -80 380 -220q43 -62 43 -130q0 -96 -82.5 -168.5t-227.5 -96.5z" />
    <glyph glyph-name="four" unicode="4" horiz-adv-x="2125" 
d="M2054 563l-2 -344h-131q-25 0 -25 -39v-131h-763v131q0 13 -12 24t-36 11h-1003v526q90 58 178.5 129t175.5 155t151.5 150.5t158 167t143.5 152.5h844q-159 -144 -478.5 -429t-478.5 -429q-24 -19 -16.5 -48.5t47.5 -29.5h274q60 0 60 45q0 28 -11 209l764 412v-625
q-2 -15 7 -26t24 -11h129z" />
    <glyph glyph-name="five" unicode="5" horiz-adv-x="2084" 
d="M848 1098q-7 -26 -12.5 -58.5t-8 -58t-3.5 -67t-1.5 -63.5t0 -71.5t0.5 -66.5l-735 139v633h1765v-387h-1005zM1417 993q99 -2 202.5 -35t192 -89t145 -143t56.5 -187q0 -128 -74 -234.5t-200.5 -177t-294 -109t-354.5 -38.5q-180 0 -350.5 37t-310.5 106t-230 178
t-101 242l748 59q0 -69 69 -109t185 -40q108 0 190 52t82 140q0 139 -246 139q-75 0 -137 -21t-80 -56q50 130 190 210t318 76zM909 707l-6 -15q0 1 2 7t4 8z" />
    <glyph glyph-name="six" unicode="6" horiz-adv-x="2238" 
d="M98 754q18 144 67 264t136 221.5t208.5 171.5t291.5 109t377 39q373 0 606 -112t303 -317l-709 -163q0 68 -68 107.5t-149 39.5q-169 0 -267.5 -98t-98.5 -238q0 -108 52 -183t136 -109.5t193 -34.5q129 0 209.5 55t80.5 127q0 60 -50 104t-119 63t-144 19
q-170 0 -274 -94q64 99 266 149q153 40 411 56q66 -15 117 -28.5t117.5 -35.5t116 -45.5t100.5 -58.5t84 -74t53.5 -91t20.5 -112q0 -96 -64 -185.5t-183.5 -161.5t-309 -115t-420.5 -43q-188 0 -360 33.5t-314 100t-242.5 158t-147 216t-26.5 266.5z" />
    <glyph glyph-name="seven" unicode="7" horiz-adv-x="1861" 
d="M125 1487h1669q-345 -734 -631 -1438h-848q258 405 541 891q22 28 25.5 57t-15 49.5t-57.5 20.5h-684v420z" />
    <glyph glyph-name="eight" unicode="8" horiz-adv-x="2164" 
d="M1642 827q453 -167 453 -403q0 -71 -34 -132t-110.5 -115t-192 -92.5t-288 -60.5t-387.5 -22t-387.5 22.5t-287.5 61.5t-191.5 93.5t-110.5 116t-34 132.5q0 124 122 225t332 172v2q-192 71 -297.5 158t-105.5 201q0 170 238.5 271.5t719.5 101.5q476 0 720.5 -102
t244.5 -271q0 -114 -106 -201t-298 -156v-2zM803 1001q0 -64 67.5 -106.5t178.5 -42.5h102q94 0 151.5 39t57.5 98q0 160 -275 160q-133 0 -207.5 -39t-74.5 -109zM780 651q0 -83 78 -132.5t229 -49.5q149 0 223 48.5t74 133.5q0 78 -62.5 123t-172.5 45h-109
q-121 0 -190.5 -43t-69.5 -125z" />
    <glyph glyph-name="nine" unicode="9" horiz-adv-x="2236" 
d="M2161 784q-17 -144 -66 -264t-136 -221t-209 -171t-292 -109t-377 -39q-373 0 -606 111.5t-303 316.5l709 163q0 -68 68 -107.5t149 -39.5q86 0 156.5 27.5t115.5 74.5t69.5 107t24.5 127q0 108 -52 183t-136 109.5t-193 34.5q-128 0 -209 -55.5t-81 -126.5
q0 -60 50 -104t119.5 -63t145.5 -19q168 0 272 94q-64 -99 -266 -149q-152 -40 -412 -56q-66 15 -117 28.5t-117.5 35.5t-115.5 45.5t-100 58.5t-84 74t-53.5 91t-20.5 112q0 76 39.5 149t121 138t196 113.5t274.5 77t346 28.5q188 0 360 -33.5t314 -100t242.5 -158.5
t147 -216.5t26.5 -266.5z" />
    <glyph glyph-name="colon" unicode=":" horiz-adv-x="821" 
d="M88 733v477h647v-477h-647zM88 49v477h647v-477h-647z" />
    <glyph glyph-name="semicolon" unicode=";" horiz-adv-x="821" 
d="M88 733v477h647v-477h-647zM735 -86l-649 127v485h649v-612z" />
    <glyph glyph-name="less" unicode="&#x3c;" horiz-adv-x="1333" 
d="M1161 1319v-438l-610 -187l610 -182v-436l-1028 418v407z" />
    <glyph glyph-name="equal" unicode="=" horiz-adv-x="1220" 
d="M76 1030h1063v-289h-1063v289zM76 492h1063v-289h-1063v289z" />
    <glyph glyph-name="greater" unicode="&#x3e;" horiz-adv-x="1333" 
d="M172 76v438l612 186l-612 183v436l1028 -420v-405z" />
    <glyph glyph-name="question" unicode="?" horiz-adv-x="2043" 
d="M735 483q0 147 62 210.5t245 109.5q96 26 143.5 60.5t47.5 107.5q0 83 -92 122q-88 37 -194 14q-108 -24 -143 -97q-20 -43 -7 -97l-731 107q0 167 116 289.5t327.5 186.5t494.5 65q206 0 379 -30t307.5 -90.5t210 -159.5t75.5 -228q0 -83 -35 -147.5t-91 -104.5
t-124 -70.5t-137 -55t-127 -49t-95.5 -60.5t-41.5 -83h-590zM643 254l664 135v-358h-664v223z" />
    <glyph glyph-name="at" unicode="@" horiz-adv-x="2482" 
d="M1329 -219q-134 -25 -265 -27.5t-254.5 27.5t-232 80t-199.5 129t-156 175t-101.5 219t-36.5 259q0 176 63 326t175.5 260t266 188t337.5 117t387 39q263 0 474 -63.5t346.5 -174.5t207.5 -259t72 -320q0 -131 -47 -231t-133.5 -161.5t-201.5 -92.5t-257 -31
q-176 0 -259 58.5t-83 178.5q0 30 2 84t2 80q0 37 -21.5 67t-55.5 47t-75 25.5t-82.5 2t-75.5 -22.5t-55.5 -49.5t-21.5 -77.5q0 -57 54 -90.5t115.5 -26t81.5 52.5l-86 -323q-147 -30 -279.5 7.5t-217 139t-84.5 244.5q0 100 40.5 182.5t108.5 134.5t156 80.5t186 28.5
q147 0 299 -111q8 -2 17.5 2t9.5 13v63h395q-14 -314 8 -522q77 0 122.5 69.5t45.5 210.5q0 74 -19.5 140.5t-70.5 131.5t-128.5 111.5t-203 75.5t-286.5 29q-207 0 -369 -47.5t-265 -133t-156.5 -202t-53.5 -256.5q0 -178 84.5 -312.5t227.5 -204t321 -69.5q135 0 227 27
v-297z" />
    <glyph glyph-name="A" unicode="A" horiz-adv-x="2400" 
d="M1853 1491q46 -204 138.5 -465.5t188.5 -525.5t144 -451h-931l-27 160q-28 22 -53 22h-303q-36 0 -58 -22l-26 -160h-865q42 149 114.5 349.5t136 362.5t132 364.5t107.5 365.5h1302zM977 410q-4 -28 6.5 -47t28.5 -19h297q26 0 44 19t15 53q-10 91 -79 382.5t-105 291.5
h-21q-28 0 -61.5 -99t-60.5 -232.5t-43.5 -226.5t-20.5 -122z" />
    <glyph glyph-name="B" unicode="B" horiz-adv-x="2144" 
d="M131 1491h1507q183 0 278 -115q78 -93 64 -217q-14 -127 -117 -208q-99 -79 -251 -85q-20 -9 -27 -24t2.5 -33t36.5 -33q109 -8 196.5 -43t142.5 -87t83.5 -115t28.5 -132q0 -68 -26 -128.5t-78 -111t-139.5 -80.5t-199.5 -30h-1540q0 154 11.5 357.5t22 354t15 359
t-9.5 371.5zM881 1079q-19 -22 -30.5 -74.5t-4.5 -107t35 -74.5q0 -2 2 -2h264q81 0 119 65t9 130t-110 65h-282zM881 739q-40 -39 -36.5 -130t36.5 -126q0 -2 2 -2h272q99 0 130 65t-7 130t-107 65h-288z" />
    <glyph glyph-name="C" unicode="C" horiz-adv-x="2279" 
d="M1149 -8q-175 0 -317 21.5t-245.5 60t-182 97t-128 125t-81.5 152.5t-46 171.5t-18 189.5q-7 195 60.5 338t202.5 230t322 128t433 41q450 -7 714 -158t318 -430l-766 -129q2 91 -67 141t-203 50q-147 0 -230.5 -52t-83.5 -163q0 -121 103.5 -202t234.5 -81
q107 0 176.5 47.5t79.5 141.5l756 -86q-16 -106 -65.5 -200t-136.5 -174t-204.5 -137t-277.5 -89.5t-348 -32.5z" />
    <glyph glyph-name="D" unicode="D" horiz-adv-x="2172" 
d="M1243 1491q111 0 212.5 -15.5t184.5 -44t155 -68.5t124.5 -89t93 -106.5t61 -120.5t28 -130.5t-6.5 -136.5q-14 -109 -54.5 -211.5t-115 -198t-175 -166.5t-244 -113.5t-312.5 -41.5l-1085 2q-6 170 2 458.5t12.5 489t-14.5 492.5h1134zM1112 1014h-283q-63 0 -63 -84
v-254q0 -76 34.5 -111t73.5 -35h201q66 0 119.5 26.5t85.5 68.5t49 90t17 96q0 89 -59 146t-175 57z" />
    <glyph glyph-name="E" unicode="E" horiz-adv-x="1796" 
d="M1692 1077h-791q-78 0 -78 -69v-84q0 -45 45 -45h783v-230h-783q-45 0 -45 -39v-92q0 -11 3.5 -22t12.5 -24.5t29.5 -21.5t49.5 -8h833v-393h-1657q-4 179 15 447t33 530.5t1 464.5h1549v-414z" />
    <glyph glyph-name="F" unicode="F" horiz-adv-x="1785" 
d="M1692 1014h-762q-62 0 -86.5 -31.5t-24.5 -71.5v-84q0 -49 53 -49h789v-338h-789q-36 0 -36 -34q0 -153 24 -357h-768q-4 209 22 694.5t15 747.5h1563v-477z" />
    <glyph glyph-name="G" unicode="G" horiz-adv-x="2293" 
d="M1124 1554q243 0 436 -45t323.5 -127t210 -191t110.5 -245l-777 -178q29 138 -57.5 206t-247.5 68q-309 0 -309 -231q0 -105 83 -166t216 -61q171 0 225 78q-33 -114 -106 -336t-98 -303q-208 -20 -376 11.5t-280.5 100.5t-192 174t-119 223.5t-52.5 258.5
q-7 58 -3.5 115t11.5 112t30 107.5t51 100.5t75 91t102.5 79.5t133 65.5t166.5 49.5t203 31.5t242 11zM1403 49v631q403 -45 786 -51v-580h-786z" />
    <glyph glyph-name="H" unicode="H" horiz-adv-x="2060" 
d="M1206 1491h742q7 -263 3.5 -475t-1 -487.5t17.5 -479.5h-745q10 245 10 443q0 25 -14.5 41t-40.5 16h-304q-38 0 -38 -55q0 -242 14 -445h-764q0 178 20.5 451t35 532t3.5 459h732q-41 -317 -41 -559q0 -43 38 -43h304q27 0 41 16t14 43q0 256 -27 543z" />
    <glyph glyph-name="I" unicode="I" horiz-adv-x="925" 
d="M88 49q-5 214 8 700.5t6 741.5h729q-12 -208 -13 -424.5t4.5 -353t16.5 -352.5t15 -312h-766z" />
    <glyph glyph-name="J" unicode="J" horiz-adv-x="1275" 
d="M61 618q67 -51 141 -72t131.5 -3t74.5 75q33 17 42 135.5t-1 278.5t-21 274t-20 185h751q-19 -99 -14.5 -257t18 -288.5t27.5 -251.5t14 -145q0 -123 -37 -220t-99 -159.5t-149 -103t-180.5 -57t-199.5 -15.5q-303 0 -494 104z" />
    <glyph glyph-name="K" unicode="K" horiz-adv-x="2142" 
d="M98 49q0 183 26 682.5t15 759.5h727q0 -111 -13 -341t-13 -339q0 -36 24 -41q-24 -2 -24 -45q0 -415 26 -676h-768zM1233 49l-281 723q105 169 172.5 340t124.5 379h787l-328 -629q-11 -15 -16 -25.5t-1 -23.5t5 -16.5t15 -21.5t18 -23q258 -520 337 -703h-833z" />
    <glyph glyph-name="L" unicode="L" horiz-adv-x="1714" 
d="M831 580q0 -54 68 -54h737v-477h-1552q1 135 14.5 340t25.5 365t10.5 363.5t-25.5 373.5h745q0 -147 -11.5 -455.5t-11.5 -455.5z" />
    <glyph glyph-name="M" unicode="M" horiz-adv-x="2598" 
d="M2451 1491q-2 -252 30 -731t32 -711h-725q12 366 12 742q0 92 -46 116q-24 13 -37 -2l-3 -6l-221 -850h-471q-75 434 -141 772q0 53 -29.5 76t-59.5 3.5t-30 -69.5q0 -334 35 -782h-699q-1 204 19 695t14 747h1047q46 -359 131 -645q12 -19 33 -21.5t26 15.5l156 651h927
z" />
    <glyph glyph-name="N" unicode="N" horiz-adv-x="2146" 
d="M1327 1491h721q3 -139 -13 -336t-31.5 -350t-9.5 -359.5t46 -396.5h-879l-252 707q-4 13 -25.5 16.5t-42 -12.5t-20.5 -51q0 -350 25 -660h-754q0 204 34.5 685.5t31.5 756.5h817l276 -827q4 -14 22.5 -19t36 5.5t17.5 35.5v805z" />
    <glyph glyph-name="O" unicode="O" horiz-adv-x="2293" 
d="M1135 1548q-227 0 -399.5 -33t-287.5 -93t-187 -152.5t-103 -204t-31 -254.5q0 -83 5.5 -151t20.5 -139.5t40.5 -129t66 -113.5t95.5 -98t131 -78.5t171 -60t217 -36.5t267 -13q196 0 357 27t275.5 77t198.5 116.5t133.5 151t73 174t23.5 191.5q0 178 -69 327t-200.5 259
t-335.5 171.5t-462 61.5zM1135 1024q156 0 239.5 -62.5t83.5 -168.5q0 -48 -16.5 -94t-50.5 -88.5t-95 -68.5t-141 -26q-152 0 -232.5 82.5t-80.5 210.5q0 50 13 87t44.5 67t90.5 45.5t145 15.5z" />
    <glyph glyph-name="P" unicode="P" horiz-adv-x="2082" 
d="M1331 1491q170 0 306 -47.5t219.5 -127t127.5 -178t44 -206.5q0 -110 -45.5 -212.5t-130 -184.5t-220 -131.5t-301.5 -49.5h-473q-30 0 -44 -13.5t-7 -41.5l6 -250h-721q-2 179 11 463t21 479t-3 500h1210zM1118 682q95 0 150 57.5t55 134.5t-56.5 133t-162.5 56h-242
q-31 0 -47 -21t-16 -55v-227q0 -35 19.5 -56.5t39.5 -21.5h260z" />
    <glyph glyph-name="Q" unicode="Q" horiz-adv-x="2277" 
d="M1423 227q-21 -5 -30 -27t4 -43t49 -24l694 68l-102 -437l-1161 58l49 194q11 23 9 31t-22 8q-160 25 -297 88.5t-245 162t-179.5 236.5t-97.5 304q-16 137 27.5 252.5t137 200t229 144t303 89t358.5 29.5q314 0 547.5 -78.5t366 -236.5t132.5 -380q0 -139 -64.5 -256
t-173 -195.5t-245.5 -126.5t-289 -61zM1147 1075q-154 0 -238 -58t-84 -153q0 -118 95 -195t249 -77q79 0 137.5 22t89.5 58t45.5 75.5t14.5 81.5q0 121 -80.5 183.5t-228.5 62.5z" />
    <glyph glyph-name="R" unicode="R" horiz-adv-x="2111" 
d="M1786 567l274 -518h-934q-62 193 -116 327.5t-127 250.5h264q78 0 132 54t54 132q0 79 -57.5 132.5t-145.5 53.5h-270q-35 0 -55.5 -21.5t-20.5 -51.5q0 -118 7.5 -186.5t20.5 -93t34 -21.5q-17 -5 -32 -100t-19.5 -221.5t6.5 -254.5h-705q-3 168 6.5 465t13.5 491.5
t-12 485.5h1375q121 0 219.5 -35.5t159.5 -94.5t94 -133t33 -155q0 -87 -36.5 -167.5t-104.5 -145.5t-177.5 -103.5t-243.5 -38.5h-147q-5 0 -9.5 -4t-4.5 -10q0 -19 15 -28t36 -9h473zM846 625h2h-2z" />
    <glyph glyph-name="S" unicode="S" horiz-adv-x="2170" 
d="M1155 885q359 0 568.5 -42.5t300 -130.5t90.5 -237q0 -118 -80 -212t-219 -153.5t-319 -90.5t-386 -31q-184 0 -339.5 19t-285.5 60.5t-220 103.5t-138.5 151t-44.5 200l776 58q-12 -80 60 -132.5t186 -52.5q110 0 178 47.5t68 104.5q0 33 -18.5 54.5t-54.5 32.5t-77 15
t-98 4h-150q-201 -6 -360.5 16t-257.5 62t-160 95t-83.5 111.5t-12.5 115.5q89 237 348.5 370t638.5 138q300 5 528 -65.5t344.5 -199t102.5 -292.5l-748 -54q26 85 -29 137t-165 52q-105 0 -187 -45t-82 -113q0 -43 41.5 -69.5t126.5 -26.5h158z" />
    <glyph glyph-name="T" unicode="T" horiz-adv-x="1880" 
d="M1812 1491v-494h-448q-45 0 -61.5 -18.5t-16.5 -50.5q0 -129 11 -434t8 -445h-760q49 414 49 830q0 34 -3.5 57t-19 42t-43.5 19h-450v494h1734z" />
    <glyph glyph-name="U" unicode="U" horiz-adv-x="2070" 
d="M117 1491q0 -84 6.5 -213.5t12.5 -231.5t5.5 -229t-12.5 -229q-12 -99 17 -185.5t91.5 -151.5t150 -116.5t194 -84t222 -49.5t234.5 -17q180 0 343 39t295.5 113.5t210.5 197t77 276.5q-4 543 8 881h-745q3 -132 28.5 -402.5t26.5 -418.5q1 -76 -53.5 -117t-136.5 -41
q-73 0 -133.5 23.5t-103 81t-42.5 141.5q0 303 10 733h-706z" />
    <glyph glyph-name="V" unicode="V" horiz-adv-x="2353" 
d="M2288 1491q-45 -124 -160.5 -416t-204.5 -543t-149 -483h-1147q-189 541 -551 1442h868q55 -359 86 -500q70 -316 172 -483h15q34 60 64.5 145t50 154t41.5 185t30.5 169t27 180.5t21.5 149.5h836z" />
    <glyph glyph-name="W" unicode="W" horiz-adv-x="2895" 
d="M2058 1491h742q-38 -179 -159 -668t-173 -774h-873l-125 766q-3 22 -24.5 32t-43.5 1t-26 -33l-127 -766h-778q-38 217 -101 471t-138.5 534t-112.5 437h733q21 -362 117 -825q13 -21 35 -26t38.5 1.5t18.5 15.5l123 834h551l125 -829q2 -15 35 -22.5t64.5 11.5t29.5 68
q40 362 69 772z" />
    <glyph glyph-name="X" unicode="X" horiz-adv-x="2297" 
d="M1122 713q-30 -2 -43 -88l-135 -576h-868q44 93 150.5 324t170.5 364q1 1 8 9.5t8.5 11t7 10.5t6.5 12.5t2 13t-1 15t-6.5 15.5t-11.5 18q-209 468 -295 649h829l146 -743q1 -12 11 -22.5t21 -12.5zM1114 729q1 1 9 3.5t15 6t15.5 12.5t11.5 21q43 200 131 719h895
q-57 -122 -168 -357.5t-163 -347.5q-15 -27 -11 -42.5t25 -36.5q57 -114 182 -344t168 -314h-893l-172 608q-3 42 -11 56.5t-34 15.5z" />
    <glyph glyph-name="Y" unicode="Y" horiz-adv-x="2234" 
d="M1335 1491h799q-85 -170 -178.5 -344t-236.5 -430t-191 -344q-15 -29 -15 -76v-248h-759v275q0 22 -13 59q-126 235 -347.5 617t-282.5 491h854q13 -59 36.5 -184.5t45.5 -224.5t47 -187q12 -33 45 -38.5t57 24.5q110 311 139 610z" />
    <glyph glyph-name="Z" unicode="Z" horiz-adv-x="1841" 
d="M1751 1491l-623 -868q-16 -19 -9.5 -35.5t32.5 -16.5h606v-522h-1675l672 871q14 19 5 37t-30 18h-645v516h1667z" />
    <glyph glyph-name="bracketleft" unicode="[" horiz-adv-x="954" 
d="M131 -127q-5 237 8 812t2 900h733v-291h-196q-66 -229 -57 -570.5t81 -559.5h189v-291h-760z" />
    <glyph glyph-name="backslash" unicode="\" horiz-adv-x="1269" 
d="M74 1487h710q97 -668 385 -1585h-692q-63 290 -215 863.5t-188 721.5z" />
    <glyph glyph-name="bracketright" unicode="]" horiz-adv-x="954" 
d="M823 -127h-760v291h187q73 218 82.5 560t-56.5 570h-196v291h733q-12 -329 1.5 -905.5t8.5 -806.5z" />
    <glyph glyph-name="asciicircum" unicode="^" horiz-adv-x="1245" 
d="M422 1448h395l330 -483h-369l-162 233l-151 -233h-367z" />
    <glyph glyph-name="underscore" unicode="_" horiz-adv-x="1318" 
d="M80 186h1157v-389h-1157v389z" />
    <glyph glyph-name="grave" unicode="`" horiz-adv-x="1228" 
d="M324 1436l-304 364h590l121 -364h-407z" />
    <glyph glyph-name="a" unicode="a" horiz-adv-x="1740" 
d="M299 1165v-387q75 46 171.5 71t193.5 25q166 0 277.5 -74t111.5 -196q0 -49 -33 -55q-67 70 -190 124t-246 54q-95 0 -173 -20.5t-130 -52.5t-95.5 -81t-69 -94.5t-50.5 -105.5q-10 -73 13.5 -138t71.5 -112t118 -79t149 -43t167.5 1t170.5 49l141 318q-34 -69 -139 -64
q-63 4 -101.5 36.5t-38.5 74.5q0 52 54 90.5t151 34.5q50 -2 95 -16t77.5 -44t32.5 -71q0 -68 -10 -361h635q-11 304 -11 725q0 86 -35.5 161t-98.5 130t-149 97t-186 65.5t-212 32.5t-224.5 1t-225 -32t-212.5 -64z" />
    <glyph glyph-name="b" unicode="b" horiz-adv-x="1951" 
d="M94 1475h611q-31 -287 -31 -791q0 -105 96 -168t238 -63q128 0 198 55.5t68 142.5q0 75 -57 124.5t-158 53.5q-73 0 -125 -25t-70 -77l127 483q117 25 228.5 19.5t210.5 -31.5t182 -79t143 -123t93.5 -164t33.5 -201q0 -132 -54.5 -248t-145.5 -195t-212 -124.5
t-253 -45.5q-128 0 -258 49.5t-242 131.5q-22 2 -34.5 -8t-8.5 -31v-111h-596q-3 171 9 461t17.5 482t-10.5 483z" />
    <glyph glyph-name="c" unicode="c" horiz-adv-x="1857" 
d="M907 1268q222 32 412.5 -20t311 -172t149.5 -285l-561 -101q-13 78 -88 117t-179 39q-113 0 -193.5 -54.5t-80.5 -142.5q0 -103 87 -159t210 -56q86 0 156 34t90 105q90 -11 260 -34.5t260 -34.5q-46 -243 -262 -373.5t-549 -130.5q-189 0 -354.5 48.5t-281 133.5
t-169.5 211.5t-23 272.5q11 139 76.5 249t173.5 183t247.5 115.5t307.5 54.5z" />
    <glyph glyph-name="d" unicode="d" horiz-adv-x="1961" 
d="M1276 49q-1 108 2.5 304t3.5 282q0 65 -49 114t-121.5 72t-153.5 23q-133 0 -207.5 -54t-72.5 -141q0 -82 67.5 -137.5t180.5 -58.5q72 0 123 25.5t67 78.5l-129 -500q-120 -29 -239 -30t-223 24.5t-191.5 77t-148 122.5t-90 167t-19.5 205q12 118 62.5 224.5t127 184.5
t171.5 134t199.5 81.5t205.5 18.5q211 -22 411 -154q14 -1 20.5 8.5t6.5 26.5q0 26 -6 344h584q1 -129 -2 -439.5t1.5 -549.5t22.5 -453h-604z" />
    <glyph glyph-name="e" unicode="e" horiz-adv-x="1837" 
d="M944 403q112 0 180 39t84 103l500 -166q-35 -105 -148.5 -195t-279 -143t-340.5 -53q-242 0 -435.5 78.5t-311.5 232t-127 358.5q-5 123 37.5 226.5t122 176t190.5 123.5t242 75t276 24q393 0 617 -175.5t225 -492.5h-1053q-21 0 -31.5 -7t-11.5 -14t0 -15
q1 -76 76 -125.5t188 -49.5zM928 870q-119 0 -189 -44t-69 -124q1 -17 14 -26.5t23 -11.5t18 -2h457q6 0 11 10t5 22q0 70 -69.5 123t-200.5 53z" />
    <glyph glyph-name="f" unicode="f" horiz-adv-x="1327" 
d="M928 1548q-343 0 -542.5 -174.5t-199.5 -462.5v-18q-59 -187 -153 -367h131q29 0 29 -39q0 -91 -5 -438h648q-13 195 -13 457q0 19 9.5 28t21.5 9h231l103 323h-334q-39 0 -39 33q0 39 10.5 74t33 67t63.5 51t96 19q65 0 115 -32.5t51 -90.5l145 463q-48 37 -170.5 67.5
t-230.5 30.5z" />
    <glyph glyph-name="g" unicode="g" horiz-adv-x="1861" 
d="M1772 1221h-574v-107q0 -19 -15.5 -26.5t-27.5 -2.5q-79 76 -196.5 129.5t-215.5 53.5q-93 0 -190.5 -25.5t-186.5 -74.5t-159.5 -114t-111.5 -152t-40 -181q2 -119 52.5 -218.5t133.5 -165t189.5 -102t222.5 -36.5q97 0 166 11.5t137 51.5l97 381q-41 -100 -191 -100
q-97 0 -157 47t-60 145q0 84 65.5 124t176.5 40q124 0 201 -54.5t77 -172.5q0 -176 -2 -307q-1 -70 -23.5 -127.5t-60 -96.5t-87.5 -66t-105 -39.5t-113 -12.5q-110 0 -225 31.5t-187 78.5v-258q109 -60 257 -90t302 -28t306 39t270 101.5t191 169t73 232.5q0 486 11 922z
" />
    <glyph glyph-name="h" unicode="h" horiz-adv-x="1693" 
d="M76 49q0 164 4 475t5 485.5t-5 481.5l602 2q-12 -169 -10 -450t22 -298q-14 -53 -11.5 -302.5t15.5 -393.5h-622zM973 49q31 407 31 602q0 53 -26 88.5t-61.5 46.5t-69 10.5t-50.5 -12.5l129 416q67 28 141.5 41t149.5 11.5t143 -24.5t120.5 -64t83.5 -111t31 -160
q0 -475 11 -844h-633z" />
    <glyph glyph-name="i" unicode="i" horiz-adv-x="784" 
d="M82 762v477h610v-330q0 -9 -30 -20q-548 -120 -580 -127zM80 49q0 50 10.5 286.5t3.5 358.5h586q0 -428 22 -645h-622z" />
    <glyph glyph-name="j" unicode="j" horiz-adv-x="792" 
d="M86 762v477h608v-330q0 -9 -28 -20q-482 -104 -580 -127zM80 -213q12 289 12 881l598 2q0 -506 4 -752z" />
    <glyph glyph-name="k" unicode="k" horiz-adv-x="1832" 
d="M731 688q0 -33 29 -43q-22 -23 -22 -245t20 -351h-656q-1 172 3.5 480.5t5 481.5t-8.5 480h648q4 -142 -7.5 -414t-11.5 -389zM1411 635l363 -586h-699q-22 57 -63 165.5t-79 204.5t-77 185q-2 8 -10.5 21t-14.5 14q33 7 43 37l240 545h631l-344 -535q-11 -13 -8.5 -23
t18.5 -28zM760 645q5 3 10 -2q-6 0 -10 2z" />
    <glyph glyph-name="l" unicode="l" horiz-adv-x="772" 
d="M80 49q0 155 6 467.5t7 486.5t-9 488h588q-6 -758 26 -1442h-618z" />
    <glyph glyph-name="m" unicode="m" horiz-adv-x="2643" 
d="M1006 49q30 386 30 598q0 47 -13.5 81.5t-35 51.5t-47 25.5t-50 7t-43.5 -6.5t-28 -13l129 415q106 42 223 47.5t217 -24.5t166.5 -108.5t69.5 -192.5q3 -48 23 -207q-43 -254 -11 -674h-630zM1931 49q29 389 29 598q0 43 -14 74.5t-35.5 47.5t-47.5 24t-50.5 6.5
t-44.5 -8t-29 -15.5l112 418q90 36 188 49.5t189.5 -0.5t165 -53t118 -113.5t44.5 -175.5v-852h-625zM76 49q1 108 5 389.5t4 400t-7 382.5h618q-31 -560 0 -1172h-620z" />
    <glyph glyph-name="n" unicode="n" horiz-adv-x="1708" 
d="M1004 49q2 39 8 136t9 154.5t6 145t3 162.5q0 49 -18.5 83t-45.5 47.5t-57 17.5t-54 -1t-36 -14l129 416q83 37 175 51.5t180 3t159 -47.5t114.5 -108t43.5 -171v-875h-616zM80 49q-4 144 2.5 384t8.5 391t-15 397h606q0 -293 18 -494q-26 -209 0 -678h-620z" />
    <glyph glyph-name="o" unicode="o" horiz-adv-x="1884" 
d="M938 -20q-116 0 -227.5 19.5t-211.5 56t-182.5 93.5t-140.5 127.5t-86 161.5t-18 193q38 318 265.5 484.5t600.5 166.5q149 0 283.5 -27t245 -82t189 -132t117.5 -182t29 -228q-26 -308 -257.5 -479.5t-606.5 -171.5zM948 414q140 0 212.5 60.5t72.5 150.5q0 43 -15 80.5
t-47.5 70t-92 51.5t-140.5 19q-274 0 -274 -199q0 -92 74.5 -162.5t209.5 -70.5z" />
    <glyph glyph-name="p" unicode="p" horiz-adv-x="1947" 
d="M1886 629q-14 -174 -122 -319t-274.5 -226.5t-352.5 -81.5q-111 0 -225.5 36t-206.5 89q-11 1 -16.5 -3t-6 -11.5t0 -14.5t3 -17t2.5 -15v-263h-596q20 204 3 715t-11 703h623q-3 -60 -10 -176t-11.5 -214.5t-3.5 -189.5q3 -107 91.5 -165t209.5 -58q129 0 206 58t77 145
q0 80 -61.5 142t-166.5 66q-73 0 -124.5 -25.5t-67.5 -78.5l129 483q100 23 201 25t192 -17t173 -55t147.5 -90.5t112 -121t69 -149t16.5 -171.5z" />
    <glyph glyph-name="q" unicode="q" horiz-adv-x="1941" 
d="M1266 1221v-105q0 -15 -6 -21.5t-17 -4.5q-122 76 -231 117.5t-250 41.5q-106 0 -207 -24.5t-189.5 -75.5t-155.5 -122t-105.5 -170.5t-38.5 -215.5q0 -109 34.5 -204t95 -164.5t144 -123t181 -78.5t206 -30.5t219.5 20.5l129 484q-35 -103 -194 -103q-95 6 -147 61.5
t-52 129.5q0 96 71.5 154.5t196.5 58.5q118 0 210.5 -63t92.5 -165q0 -116 -17 -414t-17 -405h620q0 122 -3.5 440t-1 542t14.5 440h-583z" />
    <glyph glyph-name="r" unicode="r" horiz-adv-x="1454" 
d="M811 557l90 447q19 90 85.5 152.5t146 84.5t157 19t123.5 -31l-137 -664q-61 48 -164 61t-190 -7.5t-111 -61.5zM713 1221q0 -129 -11.5 -369t-11 -434.5t24.5 -368.5h-631q0 130 2.5 369t2.5 434t-5 369h629z" />
    <glyph glyph-name="s" unicode="s" horiz-adv-x="1562" 
d="M68 893q0 95 65 172t170.5 123.5t243 72t279 25t281.5 -25.5t249 -72v-361q-58 49 -184 77t-250 28q-106 0 -172 -26.5t-66 -80.5q0 -37 32 -50t89 -13q27 0 89.5 1t96.5 1q77 0 145.5 -9.5t137.5 -34t119 -63.5t81 -103t31 -146q0 -104 -67 -186.5t-176 -131.5
t-249.5 -74.5t-283.5 -21.5t-282.5 34.5t-243.5 86.5v397q59 -61 190.5 -94t263.5 -33q111 3 175.5 33t64.5 80q0 28 -25.5 44.5t-70.5 16.5h-142q-60 0 -111.5 3t-113.5 11.5t-112 23t-99 40.5t-82 60t-53 84t-20 112z" />
    <glyph glyph-name="t" unicode="t" horiz-adv-x="1323" 
d="M80 524v711l614 143q-12 -305 8 -628q-9 -43 3 -91.5t40 -90.5t77 -69.5t108 -27.5q77 0 148.5 35t99.5 96v-508q-73 -55 -189 -86t-235 -31q-128 0 -248 37.5t-215.5 105t-153 173t-57.5 231.5zM784 756q98 239 152 481h324v-481h-476z" />
    <glyph glyph-name="u" unicode="u" horiz-adv-x="1710" 
d="M709 1221q-35 -440 -35 -621q0 -56 18.5 -92.5t47 -50t62.5 -14t65 9t55 24.5l-131 -401q-51 -24 -116 -40.5t-136.5 -21t-142 3t-132.5 33.5t-108 67t-68.5 107.5t-13.5 151.5q19 108 25 234.5t4.5 195t-11 225.5t-10.5 189h627zM1618 1221q0 -77 -1 -281.5t-1 -322
t4.5 -282.5t13.5 -286h-628q2 50 7.5 159t9 200t3.5 163q0 357 -14 650h606z" />
    <glyph glyph-name="v" unicode="v" horiz-adv-x="1826" 
d="M1767 1221q-18 -54 -71 -204.5t-81 -234t-71.5 -217.5t-79 -260.5t-67.5 -255.5h-965q-167 589 -379 1172h695q9 -185 60.5 -426.5t115.5 -417.5q11 -17 13 -17q6 0 34 17q60 178 108.5 419.5t55.5 424.5h632z" />
    <glyph glyph-name="w" unicode="w" horiz-adv-x="2471" 
d="M2408 1223q-41 -187 -138.5 -579t-141.5 -595h-739l-103 533q-7 41 -28.5 57.5t-42.5 3.5t-27 -45l-105 -549h-745q-23 103 -64.5 293.5t-68 309.5t-65 279.5t-74.5 291.5h641q50 -499 73 -688q0 -64 43 -78q32 -11 54 13q10 9 12 22l121 731h530l102 -736
q4 -28 33 -39.5t57 2.5t29 48q11 101 37 349.5t41 375.5h569z" />
    <glyph glyph-name="x" unicode="x" horiz-adv-x="1929" 
d="M934 578q-12 -12 -19 -37l-131 -492h-712l237 524q23 21 28.5 40t-1.5 34t-25 37l-223 539h688l139 -602q3 -6 6.5 -16.5t6 -16.5t6.5 -10zM1106 1223h717l-248 -539q-8 -9 -10.5 -19t1.5 -20.5t7.5 -16.5t12.5 -17.5t11 -14.5l254 -547h-753l-117 518q-1 3 -6 19.5
t-8 21.5q13 13 16 35z" />
    <glyph glyph-name="y" unicode="y" horiz-adv-x="1847" 
d="M1090 1235h702q-276 -754 -465 -1430h-569q14 18 27.5 36.5t25.5 39t20 34.5t19 36.5t15.5 31.5t15 32.5t12.5 27.5l-10 2h-426q-182 637 -398 1190h643q64 -479 140 -829q25 -57 65 -60q12 3 20 6.5t18.5 17.5t15.5 38q93 498 129 827z" />
    <glyph glyph-name="z" unicode="z" horiz-adv-x="1544" 
d="M129 883v340h1346q-79 -121 -266.5 -393.5t-266.5 -393.5q-19 -19 -12.5 -39t31.5 -20l473 16v-344h-1360l561 791q17 15 8.5 37t-37.5 22z" />
    <glyph glyph-name="braceleft" unicode="{" horiz-adv-x="1093" 
d="M47 600h55q65 0 94.5 -19t28 -56.5t-14 -77t-29.5 -98t-19 -101.5q-5 -133 68 -230t194.5 -142.5t281.5 -43t324 58.5v326q-69 -44 -155 -48t-139.5 42.5t-28.5 132.5q42 150 -1 237.5t-190 147.5q146 43 186 133.5t-6 239.5q-15 55 0.5 96t53.5 61.5t86 26.5t100 -6.5
t94 -40.5v326q-164 56 -323 58.5t-280 -43t-194.5 -142.5t-70.5 -230q1 -39 13 -86.5t25.5 -83t21 -71t2 -58.5t-35 -37t-86.5 -14h-55v-258z" />
    <glyph glyph-name="bar" unicode="|" horiz-adv-x="761" 
d="M109 -162v1649h544v-1649h-544z" />
    <glyph glyph-name="braceright" unicode="}" horiz-adv-x="1093" 
d="M1030 600v258h-55q-67 0 -97 18.5t-28 55t15.5 76t30.5 97.5t19 103q3 133 -70.5 230t-194.5 142.5t-280 43t-323 -58.5v-326q42 28 94 40.5t100 6.5t86 -26.5t53.5 -61.5t0.5 -96q-28 -100 -22.5 -173t54 -122t146.5 -78q-145 -60 -187.5 -147.5t-0.5 -237.5
q25 -86 -28.5 -132.5t-140 -42.5t-155.5 48v-326q164 -56 324 -58.5t281.5 43t194.5 142.5t68 230q-2 43 -19 101.5t-29.5 98t-14 77t28 56.5t94.5 19h55z" />
    <glyph glyph-name="asciitilde" unicode="~" horiz-adv-x="1263" 
d="M113 444h272q-19 71 3 133t67 62q23 0 53 -21.5t64 -51.5t73 -60.5t92 -52t109 -21.5q62 0 122 31.5t108.5 90.5t70.5 158t4 220h-270q15 -84 -4 -139.5t-68 -55.5q-20 0 -48.5 21t-61.5 50.5t-71.5 59.5t-90.5 51t-107 21q-70 0 -133.5 -32.5t-111.5 -92.5t-69 -157
t-3 -214z" />
    <glyph glyph-name="uni00A0" unicode="&#xa0;" horiz-adv-x="409" 
 />
    <glyph glyph-name="exclamdown" unicode="&#xa1;" horiz-adv-x="925" 
d="M88 864v367h750v-232q-450 -74 -750 -135zM815 772q0 -34 -0.5 -240t0 -283t3 -225t7.5 -266h-743q0 169 15.5 507t15.5 507h702z" />
    <glyph glyph-name="cent" unicode="&#xa2;" horiz-adv-x="1855" 
d="M987 516q39 0 76 7.5t71 23.5t59.5 43.5t35.5 64.5q90 -12 260 -35t260 -34q-45 -234 -246.5 -364.5t-515.5 -141.5v-195h-115v197q-142 6 -269 40t-227 93.5t-168 138t-94 180.5t-3 214q15 179 118 308.5t265.5 199.5t377.5 90v202h115v-190q206 16 379.5 -41
t284 -173.5t137.5 -271.5l-561 -100q-11 72 -78 111.5t-162 44.5v-412zM686 731q0 -79 51 -130t135 -73v390q-82 -18 -134 -67.5t-52 -119.5z" />
    <glyph glyph-name="sterling" unicode="&#xa3;" horiz-adv-x="2285" 
d="M2163 629q8 -308 -173 -444t-610 -136h-1288l2 369h131q81 14 120 40.5t39.5 62.5t-15.5 83h-285v184h199q-55 122 -58 220q-3 107 48.5 194.5t142.5 147.5t216 100.5t264.5 59t293.5 18.5q196 0 368 -37.5t304.5 -109t206.5 -185t67 -254.5l-737 -111q28 68 2 118.5
t-84 79t-127 28.5q-138 0 -205.5 -61t-38.5 -183l6 -25h283v-184h-274q-40 -137 -283 -186l409 -2q82 0 150.5 13.5t119 39.5t73.5 68.5t12 97.5z" />
    <glyph glyph-name="currency" unicode="&#xa4;" horiz-adv-x="1550" 
d="M1397 700q0 -177 -123 -294l188 -144l-69 -92l-217 166q-158 -88 -402 -88q-228 0 -389 90l-221 -168l-70 92l193 146q-132 125 -123 317q6 181 119 291l-189 143l70 92l215 -161q153 84 395 84q234 0 397 -91l222 168l69 -92l-192 -147q127 -121 127 -312zM780 569
q74 0 120 36.5t46 101.5q0 68 -43.5 106.5t-126.5 38.5q-81 0 -122.5 -33.5t-41.5 -93.5q0 -75 48.5 -115.5t119.5 -40.5z" />
    <glyph glyph-name="yen" unicode="&#xa5;" horiz-adv-x="2107" 
d="M1995 1491q-105 -246 -363 -782h271v-115h-326q-9 -19 -26.5 -56t-26.5 -55h379v-114h-430q-2 -8 -2 -17.5t1 -21t1 -17.5v-264h-814v291v29h-436v114h393q-9 19 -26.5 55.5t-26.5 55.5h-340v115h285q-60 123 -190.5 380.5t-200.5 401.5h817q6 -43 36.5 -324t59.5 -430
q12 -35 39.5 -42t52.5 22q98 430 111 774h762z" />
    <glyph glyph-name="brokenbar" unicode="&#xa6;" horiz-adv-x="761" 
d="M109 731v756h544v-756h-544zM653 514v-676h-544v676h544z" />
    <glyph glyph-name="section" unicode="&#xa7;" horiz-adv-x="1642" 
d="M1583 692q0 -110 -115 -215q41 -65 41 -162q0 -111 -74 -197.5t-193 -135.5t-272 -71.5t-307 -13t-302.5 48t-254.5 103.5l54 416q52 -47 120.5 -83t139 -56t143.5 -30.5t136 -7.5t112.5 14t78 33t28.5 50q0 36 -38 54t-118 24l-88 8q-202 14 -287 32q-274 57 -309 247
q-6 30 -6 63q0 119 121 213q-41 59 -41 150q0 103 71 184.5t185 129.5t261 73t296 21.5t292 -32t248 -79.5l-43 -414q-53 40 -119.5 71t-134 48.5t-135.5 26.5t-126 5.5t-104 -14.5t-72 -33t-26 -51q0 -35 36.5 -52.5t119.5 -25.5l88 -8q11 -1 34 -3q57 -5 86.5 -8t84.5 -10
t86.5 -14.5t78.5 -21.5t74 -30t59.5 -40.5t49.5 -53.5t29 -68t12 -85zM780 676q194 -14 316 -29q30 23 30 62q0 40 -39 68.5t-120 35.5l-95 8q-202 13 -307 27q-39 -22 -39 -62q0 -37 41.5 -66t130.5 -36z" />
    <glyph glyph-name="dieresis" unicode="&#xa8;" horiz-adv-x="1640" 
d="M190 1454q-8 0 -8 6v258q0 8 8 8h519q8 0 8 -6v-258q0 -8 -10 -8h-517zM936 1442q-12 0 -12 14v260q0 10 14 10h516q14 0 14 -12v-260q0 -12 -14 -12h-518z" />
    <glyph glyph-name="copyright" unicode="&#xa9;" horiz-adv-x="1957" 
d="M979 16q-154 0 -290 27t-251 84.5t-197.5 141t-129.5 203t-48 265.5q-1 152 48 281.5t135.5 221.5t203.5 157t252 96t281 31q186 0 350 -48.5t291.5 -139.5t202 -235.5t74.5 -324.5q0 -152 -46 -277.5t-128.5 -214t-198 -149.5t-253.5 -90t-296 -29zM979 229
q144 0 263 33t210 99t142 174t51 249q0 125 -53 226.5t-144.5 166.5t-210 99.5t-252.5 34.5q-104 0 -200.5 -22t-182 -68.5t-149 -114t-100 -164.5t-36.5 -213q0 -102 33 -185.5t92 -141.5t142 -97t182 -57.5t213 -18.5zM963 1139q203 33 352 -48.5t176 -234.5l-348 -61
q-8 49 -50 72.5t-100 23.5q-62 0 -106 -33.5t-45 -87.5q-1 -65 48.5 -99t119.5 -34q46 0 84.5 19t50.5 61q34 -4 146 -18.5t173 -20.5q-30 -147 -157.5 -224t-327.5 -77q-154 0 -276.5 49.5t-184 143t-33.5 210.5q14 162 143 252.5t335 106.5z" />
    <glyph glyph-name="ordfeminine" unicode="&#xaa;" horiz-adv-x="1312" 
d="M1217 1264q0 -28 -1 -122t-0.5 -137.5t5.5 -113.5t14 -123h-500q4 44 5.5 95.5t1.5 86.5t-0.5 101t-0.5 96q0 62 -40.5 107t-99 65t-126.5 20q-150 0 -276 -82v277q119 47 258 67.5t272.5 9.5t243 -49t177 -115.5t67.5 -182.5zM653 1120v-100q0 29 -26.5 45t-61.5 16
q-40 0 -68 -20t-28 -55q0 -46 31 -70.5t75 -24.5q60 0 82 50l-86 -193q-73 -38 -163 -44t-167 16t-129.5 77t-52.5 131q0 119 93.5 183.5t244.5 66.5q154 0 256 -78z" />
    <glyph glyph-name="guillemotleft" unicode="&#xab;" horiz-adv-x="1392" 
d="M340 1040h383l-252 -462l252 -463h-383l-258 463zM905 1040h381l-252 -462l252 -463h-381l-260 463z" />
    <glyph glyph-name="logicalnot" unicode="&#xac;" horiz-adv-x="1214" 
d="M770 225v248h-688v365h1051v-613h-363z" />
    <glyph glyph-name="uni00AD" unicode="&#xad;" horiz-adv-x="835" 
d="M57 895h711v-426h-711v426z" />
    <glyph glyph-name="registered" unicode="&#xae;" horiz-adv-x="1955" 
d="M981 1522q148 0 283 -30t251 -93t201 -152.5t133.5 -216.5t48.5 -278q0 -146 -45.5 -267.5t-128 -208t-197.5 -146t-253.5 -88t-296.5 -28.5q-154 0 -290 28.5t-250.5 88t-197.5 146t-130 208t-48 267.5q-1 152 48 279.5t135.5 217t204 152t252 92t280.5 29.5zM977 225
q143 0 262.5 33t210 97t141.5 168t51 237q0 134 -53 240t-144.5 172.5t-209 101.5t-252.5 35q-105 0 -201 -20t-182 -64.5t-148.5 -109.5t-99.5 -160.5t-37 -211.5q0 -128 50.5 -228t140.5 -162.5t209 -95t262 -32.5zM1085 678h236l121 -234h-398q-8 19 -48.5 119t-63.5 150
q-11 29 -31 35h121q32 4 50 26t18 51q0 37 -24 66t-65 29h-106q-14 0 -22.5 -15t-6.5 -35q1 -54 4.5 -82.5t8 -35t12.5 -4.5q-14 -6 -21 -112t0 -192h-329q0 71 5 219.5t5.5 228.5t-8.5 224h616q66 0 118.5 -19.5t81.5 -51.5t45 -71t10 -80t-26 -76.5t-61 -62.5t-96 -36
q-78 -12 -164 -12q-9 -1 -12 -7t2 -12q4 -10 28 -10zM891 748z" />
    <glyph glyph-name="macron" unicode="&#xaf;" horiz-adv-x="1228" 
d="M172 1468v261h950v-261h-950z" />
    <glyph glyph-name="degree" unicode="&#xb0;" horiz-adv-x="1003" 
d="M72 1188q0 163 115 251.5t317 88.5q122 0 219 -38.5t155.5 -116.5t61.5 -185q3 -87 -30.5 -154.5t-94.5 -108t-139.5 -61t-171.5 -20.5q-187 0 -309.5 91t-122.5 253zM657 1188q0 55 -45 88t-108 33q-129 0 -150 -121q-8 -55 36 -82.5t114 -36.5q61 -8 107 25t46 94z" />
    <glyph glyph-name="plusminus" unicode="&#xb1;" horiz-adv-x="1214" 
d="M809 1014h330v-344h-330v-193h-395v193h-338v344h338v192h395v-192zM76 49v305h1063v-305h-1063z" />
    <glyph glyph-name="uni00B2" unicode="&#xb2;" horiz-adv-x="1302" 
d="M500 1104q51 13 84.5 23t80.5 26.5t75 32.5t48.5 37.5t20.5 44.5q0 40 -31 65.5t-75.5 30.5t-88.5 -2t-75 -32.5t-31 -61.5q0 -27 26.5 -43.5t88.5 -28.5l-512 61q-4 89 42.5 159.5t128 113.5t183.5 65.5t215 22.5q101 0 193.5 -17t167 -49t119 -84.5t44.5 -117.5
q0 -77 -72 -131.5t-232 -85.5t-400 -29zM1194 1030v-266l-1065 2v246q185 15 309 59q275 -41 756 -41z" />
    <glyph glyph-name="uni00B3" unicode="&#xb3;" horiz-adv-x="1310" 
d="M1044 1227q-12 -5 -18.5 -9.5t-9 -9.5t4.5 -11t23 -13q224 -38 224 -189q0 -110 -128.5 -185t-309 -88t-359 13.5t-296.5 122.5t-103 236l430 49q-21 -82 64.5 -119t180.5 -12t95 92t-164 67l-2 29q153 0 153 57q0 63 -90 88t-172 -12t-65 -121l-432 70
q8 130 130.5 214.5t293 104.5t339.5 5.5t286.5 -78t117.5 -150.5q0 -54 -51.5 -95t-141.5 -56z" />
    <glyph glyph-name="acute" unicode="&#xb4;" horiz-adv-x="1228" 
d="M475 1800l-121 -364h408l303 364h-590z" />
    <glyph glyph-name="paragraph" unicode="&#xb6;" horiz-adv-x="1591" 
d="M86 963q0 244 128.5 386t371.5 142l927 -2q-4 -928 23 -1593h-420q2 107 10 332.5t11 360.5t-5 308.5t-32 294.5h-137q-33 -129 -41.5 -305.5t-0.5 -315.5t23 -352.5t19 -322.5h-416q4 60 13.5 173.5t13.5 196.5t1 166q-107 15 -194.5 55t-154 105t-103.5 159.5
t-37 211.5z" />
    <glyph glyph-name="periodcentered" unicode="&#xb7;" horiz-adv-x="821" 
d="M86 430v475h649v-475h-649z" />
    <glyph glyph-name="cedilla" unicode="&#xb8;" horiz-adv-x="1228" 
d="M496 76h211q-37 -92 -23 -131q129 2 210 -48t81 -139q0 -104 -105.5 -177t-273.5 -73q-167 0 -291 62l70 201q44 -23 84.5 -34t70 -10t51.5 10t33 24t11 34q0 31 -36 50.5t-108 9.5q-16 99 15 221z" />
    <glyph glyph-name="uni00B9" unicode="&#xb9;" horiz-adv-x="868" 
d="M211 758q39 280 39 448q0 27 -43 27h-129l143 356h514q-4 -89 -4 -203t2 -200.5t6 -221.5t6 -206h-534z" />
    <glyph glyph-name="ordmasculine" unicode="&#xba;" horiz-adv-x="1318" 
d="M53 1163q31 221 186 336t418 115q177 0 316.5 -52.5t217.5 -156.5t64 -242q-20 -211 -178 -330.5t-420 -119.5q-99 0 -192 19.5t-171.5 58t-135.5 91.5t-85.5 125.5t-19.5 155.5zM858 1155q0 76 -52.5 122t-146.5 46q-93 0 -140.5 -39t-47.5 -108q0 -73 57.5 -124
t135.5 -51q84 0 139 42t55 112z" />
    <glyph glyph-name="guillemotright" unicode="&#xbb;" horiz-adv-x="1392" 
d="M479 1040l260 -462l-260 -463h-383l254 463l-254 462h383zM1042 1040l261 -462l-261 -463h-380l251 463l-251 462h380z" />
    <glyph glyph-name="onequarter" unicode="&#xbc;" horiz-adv-x="2172" 
d="M211 758q39 280 39 448q0 27 -43 27h-129l143 356h514q-4 -89 -4 -203t2 -200.5t6 -221.5t6 -206h-534zM965 840q115 349 200 651h535q-49 -49 -159.5 -158t-173.5 -172t-150.5 -155t-155.5 -170zM2105 295l-2 -186h-78q-16 0 -16 -27v-72h-434v74q0 6 -8 13t-23 7h-569
v285q51 32 100.5 72.5t98 89t83.5 87t86.5 97t79.5 88.5h475q-42 -37 -237 -211t-301 -268q-15 -12 -9.5 -31.5t31.5 -19.5h158q39 0 39 29q0 19 -6 124l436 218q0 -58 -1 -171.5t-1 -173.5q0 -10 6 -17t15 -7h77zM207 49q54 54 160.5 159t172 170t152 156t154.5 168l96 -2
q-138 -419 -201 -651h-534z" />
    <glyph glyph-name="onehalf" unicode="&#xbd;" horiz-adv-x="2236" 
d="M211 758q39 280 39 448q0 27 -43 27h-129l143 356h514q-4 -89 -4 -203t2 -200.5t6 -221.5t6 -206h-534zM965 840q115 349 200 651h535q-49 -49 -159.5 -158t-173.5 -172t-150.5 -155t-155.5 -170zM1432 352q65 17 108 30t96 34.5t80 47t27 54.5q0 39 -31 64.5t-75.5 30
t-89.5 -2t-76 -32t-31 -60.5q0 -53 114 -72q-249 27 -510 62q-4 88 42.5 158t128 113t183.5 65t216 22q136 0 252.5 -28.5t194 -91t77.5 -148.5q-1 -56 -42.5 -101t-126 -78t-220.5 -50.5t-317 -16.5zM207 49q54 54 160.5 159t172 170t152 156t154.5 168l96 -2
q-138 -419 -201 -651h-534zM2128 279v-267l-1067 4v244q187 15 311 59q268 -40 756 -40z" />
    <glyph glyph-name="threequarters" unicode="&#xbe;" horiz-adv-x="2580" 
d="M1044 1227q-12 -5 -18.5 -9.5t-9 -9.5t4.5 -11t23 -13q224 -38 224 -189q0 -110 -128.5 -185t-309 -88t-359 13.5t-296.5 122.5t-103 236l430 49q-21 -82 64.5 -119t180.5 -12t95 92t-164 67l-2 29q153 0 153 57q0 63 -90 88t-172 -12t-65 -121l-432 70
q8 130 130.5 214.5t293 104.5t339.5 5.5t286.5 -78t117.5 -150.5q0 -54 -51.5 -95t-141.5 -56zM1374 840q122 371 201 651h534q-49 -49 -159.5 -158t-173.5 -172t-150.5 -155t-155.5 -170zM2513 295v-186h-78q-18 0 -18 -27v-72h-432v74q0 6 -8 13t-23 7h-572v285
q63 40 130.5 99t108 101.5t113 123.5t99.5 110h475q-11 -10 -539 -479q-17 -12 -11 -31.5t34 -19.5h156q41 0 41 29q0 45 -9 124l437 218v-345q0 -24 20 -24h76zM616 49q54 54 160.5 159t172 170t152 156t154.5 168l97 -2q-138 -419 -201 -651h-535z" />
    <glyph glyph-name="questiondown" unicode="&#xbf;" horiz-adv-x="2043" 
d="M1399 1004l-662 -136v359h662v-223zM1309 774q0 -76 -14 -125t-52 -86t-94 -60.5t-150 -47.5q-47 -12 -77 -24t-58 -30.5t-41.5 -46t-13.5 -65.5q0 -84 94 -124q88 -37 193 -13q107 24 141 96q21 43 8 98l731 -108q0 -167 -116 -289t-327 -185.5t-493 -64.5
q-206 0 -379.5 30t-308 89.5t-210.5 158.5t-76 228q0 84 35 148.5t91.5 104t124.5 70.5t137.5 54.5t127 48t95.5 60.5t42 83h590z" />
    <glyph glyph-name="Agrave" unicode="&#xc0;" horiz-adv-x="2400" 
d="M1274 2066h-590l305 -364h406zM1853 1491q46 -204 138.5 -465.5t188.5 -525.5t144 -451h-931l-27 160q-28 22 -53 22h-303q-36 0 -58 -22l-26 -160h-865q42 149 114.5 349.5t136 362.5t132 364.5t107.5 365.5h1302zM977 410q-4 -28 6.5 -47t28.5 -19h297q26 0 44 19
t15 53q-10 91 -79 382.5t-105 291.5h-21q-28 0 -61.5 -99t-60.5 -232.5t-43.5 -226.5t-20.5 -122z" />
    <glyph glyph-name="Aacute" unicode="&#xc1;" horiz-adv-x="2400" 
d="M1110 2066l-121 -364h406l305 364h-590zM1853 1491q46 -204 138.5 -465.5t188.5 -525.5t144 -451h-931l-27 160q-28 22 -53 22h-303q-36 0 -58 -22l-26 -160h-865q42 149 114.5 349.5t136 362.5t132 364.5t107.5 365.5h1302zM977 410q-4 -28 6.5 -47t28.5 -19h297
q26 0 44 19t15 53q-10 91 -79 382.5t-105 291.5h-21q-28 0 -61.5 -99t-60.5 -232.5t-43.5 -226.5t-20.5 -122z" />
    <glyph glyph-name="Acircumflex" unicode="&#xc2;" horiz-adv-x="2400" 
d="M1202 1890l-133 -188h-401l227 364h631l229 -364h-420zM1853 1491q46 -204 138.5 -465.5t188.5 -525.5t144 -451h-931l-27 160q-28 22 -53 22h-303q-36 0 -58 -22l-26 -160h-865q42 149 114.5 349.5t136 362.5t132 364.5t107.5 365.5h1302zM1309 344q26 0 44 19t15 53
q-10 91 -79 382.5t-105 291.5h-21q-28 0 -61.5 -99t-60.5 -232.5t-43.5 -226.5t-20.5 -122q-4 -28 6.5 -47t28.5 -19h297z" />
    <glyph glyph-name="Atilde" unicode="&#xc3;" horiz-adv-x="2400" 
d="M674 1686h272q-13 52 6 76t58 24q25 0 64.5 -17.5t77.5 -38t94 -38t110 -17.5q71 0 133.5 22t113 67.5t73 127t7.5 187.5h-268q9 -53 -9.5 -79t-55.5 -26q-24 0 -62 18t-75 39.5t-93 39.5t-112 18q-78 0 -143 -23.5t-114.5 -70t-70.5 -126t-6 -183.5zM1853 1491
q46 -204 138.5 -465.5t188.5 -525.5t144 -451h-931l-27 160q-28 22 -53 22h-303q-36 0 -58 -22l-26 -160h-865q42 149 114.5 349.5t136 362.5t132 364.5t107.5 365.5h1302zM977 410q-4 -28 6.5 -47t28.5 -19h297q26 0 44 19t15 53q-10 91 -79 382.5t-105 291.5h-21
q-28 0 -61.5 -99t-60.5 -232.5t-43.5 -226.5t-20.5 -122z" />
    <glyph glyph-name="Adieresis" unicode="&#xc4;" horiz-adv-x="2400" 
d="M520 1700q-18 0 -18 16v289q0 18 20 18h568q16 0 16 -16v-287q0 -20 -21 -20h-565zM1300 1704q-12 0 -12 14v289q0 12 17 12h563q14 0 14 -16v-287q0 -12 -16 -12h-566zM1853 1491q46 -204 138.5 -465.5t188.5 -525.5t144 -451h-931l-27 160q-28 22 -53 22h-303
q-36 0 -58 -22l-26 -160h-865q42 149 114.5 349.5t136 362.5t132 364.5t107.5 365.5h1302zM977 410q-4 -28 6.5 -47t28.5 -19h297q26 0 44 19t15 53q-10 91 -79 382.5t-105 291.5h-21q-28 0 -61.5 -99t-60.5 -232.5t-43.5 -226.5t-20.5 -122z" />
    <glyph glyph-name="Aring" unicode="&#xc5;" horiz-adv-x="2400" 
d="M870 1913q15 117 101 181.5t227 64.5q151 0 246 -65t84 -181q-10 -119 -98 -183.5t-232 -64.5q-150 0 -247 66.5t-81 181.5zM1325 1913q0 51 -36 78.5t-91 27.5q-53 0 -88 -27.5t-35 -78.5q0 -52 35 -80.5t88 -28.5q55 0 91 28.5t36 80.5zM1853 1491
q46 -204 138.5 -465.5t188.5 -525.5t144 -451h-931l-27 160q-28 22 -53 22h-303q-36 0 -58 -22l-26 -160h-865q42 149 114.5 349.5t136 362.5t132 364.5t107.5 365.5h1302zM977 410q-4 -28 6.5 -47t28.5 -19h297q26 0 44 19t15 53q-10 91 -79 382.5t-105 291.5h-21
q-28 0 -61.5 -99t-60.5 -232.5t-43.5 -226.5t-20.5 -122z" />
    <glyph glyph-name="AE" unicode="&#xc6;" horiz-adv-x="3004" 
d="M90 49q80 223 311.5 715t313.5 727h2101v-387h-674q-39 0 -58.5 -16t-19.5 -54v-59q0 -45 45 -45h754v-295h-754q-45 0 -45 -39v-66q0 -11 3.5 -22t12.5 -24t29.5 -21t49.5 -8h800v-406h-1624q-6 205 -24 205h-275q-28 0 -90 -205h-856zM1071 367h232q30 0 55.5 41
t25.5 86q0 309 -59 596h-20q-150 -213 -267 -658q-4 -29 5.5 -47t27.5 -18z" />
    <glyph glyph-name="Ccedilla" unicode="&#xc7;" horiz-adv-x="2279" 
d="M1169 522q107 0 176.5 47.5t79.5 141.5l756 -86q-19 -126 -86 -234t-179.5 -193.5t-281 -139t-377.5 -64.5q-3 -22 5 -45q129 2 208.5 -48t79.5 -139q0 -104 -104.5 -176.5t-271.5 -72.5q-162 0 -291 61l69 201q44 -23 84.5 -34t69.5 -10t50.5 10t32.5 24t11 34
q0 31 -35 50.5t-106 9.5q-10 68 -2 135q-158 5 -287 30t-223 65t-165 98.5t-116.5 123.5t-75 148.5t-42.5 166.5t-17 183q-7 195 60.5 338t202.5 230t322 128t433 41q450 -7 714 -158t318 -430l-766 -129q2 91 -67 141t-203 50q-147 0 -230.5 -52t-83.5 -163
q0 -121 103.5 -202t234.5 -81z" />
    <glyph glyph-name="Egrave" unicode="&#xc8;" horiz-adv-x="1796" 
d="M995 2066h-589l305 -364h405zM1692 1077h-791q-78 0 -78 -69v-84q0 -45 45 -45h783v-230h-783q-45 0 -45 -39v-92q0 -11 3.5 -22t12.5 -24.5t29.5 -21.5t49.5 -8h833v-393h-1657q-4 179 15 447t33 530.5t1 464.5h1549v-414z" />
    <glyph glyph-name="Eacute" unicode="&#xc9;" horiz-adv-x="1796" 
d="M834 2066l-121 -364h405l305 364h-589zM1692 1077h-791q-78 0 -78 -69v-84q0 -45 45 -45h783v-230h-783q-45 0 -45 -39v-92q0 -11 3.5 -22t12.5 -24.5t29.5 -21.5t49.5 -8h833v-393h-1657q-4 179 15 447t33 530.5t1 464.5h1549v-414z" />
    <glyph glyph-name="Ecircumflex" unicode="&#xca;" horiz-adv-x="1796" 
d="M924 1890l-133 -188h-402l227 364h631l230 -364h-420zM918 442h833v-393h-1657q-4 179 15 447t33 530.5t1 464.5h1549v-414h-791q-78 0 -78 -69v-84q0 -45 45 -45h783v-230h-783q-45 0 -45 -39v-92q0 -11 3.5 -22t12.5 -24.5t29.5 -21.5t49.5 -8z" />
    <glyph glyph-name="Edieresis" unicode="&#xcb;" horiz-adv-x="1796" 
d="M242 1700q-19 0 -19 16v289q0 18 21 18h567q16 0 16 -16v-287q0 -20 -20 -20h-565zM1022 1704q-12 0 -12 14v289q0 12 16 12h563q15 0 15 -16v-287q0 -12 -17 -12h-565zM1692 1077h-791q-78 0 -78 -69v-84q0 -45 45 -45h783v-230h-783q-45 0 -45 -39v-92q0 -11 3.5 -22
t12.5 -24.5t29.5 -21.5t49.5 -8h833v-393h-1657q-4 179 15 447t33 530.5t1 464.5h1549v-414z" />
    <glyph glyph-name="Igrave" unicode="&#xcc;" horiz-adv-x="925" 
d="M535 2066h-590l305 -364h405zM88 49q-5 214 8 700.5t6 741.5h729q-12 -208 -13 -424.5t4.5 -353t16.5 -352.5t15 -312h-766z" />
    <glyph glyph-name="Iacute" unicode="&#xcd;" horiz-adv-x="925" 
d="M373 2066l-121 -364h405l306 364h-590zM88 49q-5 214 8 700.5t6 741.5h729q-12 -208 -13 -424.5t4.5 -353t16.5 -352.5t15 -312h-766z" />
    <glyph glyph-name="Icircumflex" unicode="&#xce;" horiz-adv-x="925" 
d="M463 1890l-133 -188h-402l228 364h630l230 -364h-420zM831 1491q-12 -208 -13 -424.5t4.5 -353t16.5 -352.5t15 -312h-766q-5 214 8 700.5t6 741.5h729z" />
    <glyph glyph-name="Idieresis" unicode="&#xcf;" horiz-adv-x="925" 
d="M-217 1700q-19 0 -19 16v289q0 18 21 18h567q17 0 17 -16v-287q0 -20 -21 -20h-565zM563 1704q-12 0 -12 14v289q0 12 16 12h563q15 0 15 -16v-287q0 -12 -17 -12h-565zM88 49q-5 214 8 700.5t6 741.5h729q-12 -208 -13 -424.5t4.5 -353t16.5 -352.5t15 -312h-766z" />
    <glyph glyph-name="Eth" unicode="&#xd0;" horiz-adv-x="2277" 
d="M1348 1491q220 0 396 -59t282 -158t152.5 -227t21.5 -267q-13 -109 -53.5 -211.5t-115.5 -198t-176 -166.5t-244.5 -113.5t-312.5 -41.5l-1083 2q-7 166 6 635h-141v176h147q7 380 -12 629h1133zM1180 530q67 0 120.5 26.5t85 68.5t48 90t16.5 96q0 89 -58 146t-173 57
h-283q-64 0 -64 -84v-68h209v-176h-209v-10q0 -76 34 -111t75 -35h199z" />
    <glyph glyph-name="Ntilde" unicode="&#xd1;" horiz-adv-x="2146" 
d="M549 1686h272q-13 52 6 76t58 24q25 0 64.5 -17.5t77.5 -38t94 -38t110 -17.5q56 0 107.5 13t98 44t77.5 76.5t44 115t1 155.5h-269q9 -53 -9.5 -79t-55.5 -26q-24 0 -62 18t-75 39.5t-93 39.5t-112 18q-78 0 -143 -23.5t-114.5 -70t-70.5 -126t-6 -183.5zM1327 1491h721
q3 -139 -13 -336t-31.5 -350t-9.5 -359.5t46 -396.5h-879l-252 707q-4 13 -25.5 16.5t-42 -12.5t-20.5 -51q0 -350 25 -660h-754q0 204 34.5 685.5t31.5 756.5h817l276 -827q4 -14 22.5 -19t36 5.5t17.5 35.5v805z" />
    <glyph glyph-name="Ograve" unicode="&#xd2;" horiz-adv-x="2293" 
d="M1214 2066h-589l305 -364h405zM1135 1548q-227 0 -399.5 -33t-287.5 -93t-187 -152.5t-103 -204t-31 -254.5q0 -83 5.5 -151t20.5 -139.5t40.5 -129t66 -113.5t95.5 -98t131 -78.5t171 -60t217 -36.5t267 -13q196 0 357 27t275.5 77t198.5 116.5t133.5 151t73 174
t23.5 191.5q0 178 -69 327t-200.5 259t-335.5 171.5t-462 61.5zM1135 1024q156 0 239.5 -62.5t83.5 -168.5q0 -48 -16.5 -94t-50.5 -88.5t-95 -68.5t-141 -26q-152 0 -232.5 82.5t-80.5 210.5q0 50 13 87t44.5 67t90.5 45.5t145 15.5z" />
    <glyph glyph-name="Oacute" unicode="&#xd3;" horiz-adv-x="2293" 
d="M1053 2066l-121 -364h405l305 364h-589zM1135 1548q-227 0 -399.5 -33t-287.5 -93t-187 -152.5t-103 -204t-31 -254.5q0 -83 5.5 -151t20.5 -139.5t40.5 -129t66 -113.5t95.5 -98t131 -78.5t171 -60t217 -36.5t267 -13q196 0 357 27t275.5 77t198.5 116.5t133.5 151
t73 174t23.5 191.5q0 178 -69 327t-200.5 259t-335.5 171.5t-462 61.5zM1135 1024q156 0 239.5 -62.5t83.5 -168.5q0 -48 -16.5 -94t-50.5 -88.5t-95 -68.5t-141 -26q-152 0 -232.5 82.5t-80.5 210.5q0 50 13 87t44.5 67t90.5 45.5t145 15.5z" />
    <glyph glyph-name="Ocircumflex" unicode="&#xd4;" horiz-adv-x="2293" 
d="M1143 1890l-133 -188h-402l228 364h630l230 -364h-420zM1135 1548q258 0 462 -61.5t335.5 -171.5t200.5 -259t69 -327q0 -102 -23.5 -191.5t-73 -174t-133.5 -151t-198.5 -116.5t-275.5 -77t-357 -27q-145 0 -267 13t-217 36.5t-171 60t-131 78.5t-95.5 98t-66 113.5
t-40.5 129t-20.5 139.5t-5.5 151q0 143 31 254.5t103 204t187 152.5t287.5 93t399.5 33zM1155 516q80 0 141 26t95 68.5t50.5 88.5t16.5 94q0 106 -83.5 168.5t-239.5 62.5q-86 0 -145 -15.5t-90.5 -45.5t-44.5 -67t-13 -87q0 -128 80.5 -210.5t232.5 -82.5z" />
    <glyph glyph-name="Otilde" unicode="&#xd5;" horiz-adv-x="2293" 
d="M614 1686h273q-13 52 5.5 76t57.5 24q25 0 64.5 -17.5t77.5 -38t94 -38t110 -17.5q56 0 107.5 13t98 44t77.5 76.5t44 115t1 155.5h-268q9 -53 -10 -79t-56 -26q-24 0 -62 18t-75 39.5t-93 39.5t-112 18q-78 0 -143 -23.5t-114.5 -70t-70.5 -126t-6 -183.5zM1135 1548
q-227 0 -399.5 -33t-287.5 -93t-187 -152.5t-103 -204t-31 -254.5q0 -83 5.5 -151t20.5 -139.5t40.5 -129t66 -113.5t95.5 -98t131 -78.5t171 -60t217 -36.5t267 -13q196 0 357 27t275.5 77t198.5 116.5t133.5 151t73 174t23.5 191.5q0 178 -69 327t-200.5 259t-335.5 171.5
t-462 61.5zM1135 1024q156 0 239.5 -62.5t83.5 -168.5q0 -48 -16.5 -94t-50.5 -88.5t-95 -68.5t-141 -26q-152 0 -232.5 82.5t-80.5 210.5q0 50 13 87t44.5 67t90.5 45.5t145 15.5z" />
    <glyph glyph-name="Odieresis" unicode="&#xd6;" horiz-adv-x="2293" 
d="M463 1700q-19 0 -19 16v289q0 18 21 18h567q17 0 17 -16v-287q0 -20 -21 -20h-565zM1243 1704q-12 0 -12 14v289q0 12 16 12h563q15 0 15 -16v-287q0 -12 -17 -12h-565zM1135 1548q-227 0 -399.5 -33t-287.5 -93t-187 -152.5t-103 -204t-31 -254.5q0 -83 5.5 -151
t20.5 -139.5t40.5 -129t66 -113.5t95.5 -98t131 -78.5t171 -60t217 -36.5t267 -13q196 0 357 27t275.5 77t198.5 116.5t133.5 151t73 174t23.5 191.5q0 178 -69 327t-200.5 259t-335.5 171.5t-462 61.5zM1135 1024q156 0 239.5 -62.5t83.5 -168.5q0 -48 -16.5 -94
t-50.5 -88.5t-95 -68.5t-141 -26q-152 0 -232.5 82.5t-80.5 210.5q0 50 13 87t44.5 67t90.5 45.5t145 15.5z" />
    <glyph glyph-name="multiply" unicode="&#xd7;" horiz-adv-x="1134" 
d="M1051 901l-244 -244l244 -245l-240 -240l-244 244l-243 -244l-240 240l244 245l-244 244l240 240l243 -244l244 244z" />
    <glyph glyph-name="Oslash" unicode="&#xd8;" horiz-adv-x="2293" 
d="M1874 1358q161 -109 244.5 -270.5t83.5 -358.5q0 -102 -23.5 -191.5t-73 -174t-133.5 -151t-198.5 -116.5t-275.5 -77t-357 -27q-364 0 -594 84l-201 -195l-104 111l159 155q-82 53 -138 124t-84.5 159.5t-40 178t-11.5 202.5q0 143 31 254.5t103 204t187 152.5t287.5 93
t399.5 33q351 0 600 -112l219 213l106 -111zM842 809q0 -109 55 -182l391 377q-61 20 -153 20q-86 0 -145 -15.5t-90.5 -45.5t-44.5 -67t-13 -87zM1155 516q80 0 141 26t95 68.5t50.5 88.5t16.5 94q0 70 -39 125l-395 -381q65 -21 131 -21z" />
    <glyph glyph-name="Ugrave" unicode="&#xd9;" horiz-adv-x="2070" 
d="M1102 2066h-590l305 -364h406zM117 1491q0 -84 6.5 -213.5t12.5 -231.5t5.5 -229t-12.5 -229q-12 -99 17 -185.5t91.5 -151.5t150 -116.5t194 -84t222 -49.5t234.5 -17q180 0 343 39t295.5 113.5t210.5 197t77 276.5q-4 543 8 881h-745q3 -132 28.5 -402.5t26.5 -418.5
q1 -76 -53.5 -117t-136.5 -41q-73 0 -133.5 23.5t-103 81t-42.5 141.5q0 303 10 733h-706z" />
    <glyph glyph-name="Uacute" unicode="&#xda;" horiz-adv-x="2070" 
d="M940 2066l-121 -364h406l305 364h-590zM117 1491q0 -84 6.5 -213.5t12.5 -231.5t5.5 -229t-12.5 -229q-12 -99 17 -185.5t91.5 -151.5t150 -116.5t194 -84t222 -49.5t234.5 -17q180 0 343 39t295.5 113.5t210.5 197t77 276.5q-4 543 8 881h-745q3 -132 28.5 -402.5
t26.5 -418.5q1 -76 -53.5 -117t-136.5 -41q-73 0 -133.5 23.5t-103 81t-42.5 141.5q0 303 10 733h-706z" />
    <glyph glyph-name="Ucircumflex" unicode="&#xdb;" horiz-adv-x="2070" 
d="M1030 1890l-133 -188h-401l227 364h631l229 -364h-420zM1972 1491q-12 -338 -8 -881q1 -154 -77 -276.5t-210.5 -197t-295.5 -113.5t-343 -39q-119 0 -234.5 17t-222 49.5t-194 84t-150 116.5t-91.5 151.5t-17 185.5q12 102 12.5 229t-5.5 229t-12.5 231.5t-6.5 213.5
h706q-10 -430 -10 -733q0 -84 42.5 -141.5t103 -81t133.5 -23.5q82 0 136.5 41t53.5 117q-1 148 -26.5 418.5t-28.5 402.5h745z" />
    <glyph glyph-name="Udieresis" unicode="&#xdc;" horiz-adv-x="2070" 
d="M350 1700q-18 0 -18 16v289q0 18 20 18h568q16 0 16 -16v-287q0 -20 -21 -20h-565zM1130 1704q-12 0 -12 14v289q0 12 17 12h563q14 0 14 -16v-287q0 -12 -16 -12h-566zM117 1491q0 -84 6.5 -213.5t12.5 -231.5t5.5 -229t-12.5 -229q-12 -99 17 -185.5t91.5 -151.5
t150 -116.5t194 -84t222 -49.5t234.5 -17q180 0 343 39t295.5 113.5t210.5 197t77 276.5q-4 543 8 881h-745q3 -132 28.5 -402.5t26.5 -418.5q1 -76 -53.5 -117t-136.5 -41q-73 0 -133.5 23.5t-103 81t-42.5 141.5q0 303 10 733h-706z" />
    <glyph glyph-name="Yacute" unicode="&#xdd;" horiz-adv-x="2234" 
d="M1030 2066l-121 -364h406l305 364h-590zM1335 1491h799q-85 -170 -178.5 -344t-236.5 -430t-191 -344q-15 -29 -15 -76v-248h-759v275q0 22 -13 59q-126 235 -347.5 617t-282.5 491h854q13 -59 36.5 -184.5t45.5 -224.5t47 -187q12 -33 45 -38.5t57 24.5q110 311 139 610
z" />
    <glyph glyph-name="Thorn" unicode="&#xde;" horiz-adv-x="2054" 
d="M88 49q-2 142 11 415t19.5 482.5t-7.5 544.5h714q-9 -18 -4.5 -40.5t10.5 -34t17.5 -30t15.5 -28.5h432q171 0 308.5 -49.5t220.5 -130t126.5 -184t41.5 -211t-48.5 -211t-130.5 -184t-219 -130t-299 -49.5h-442q-25 0 -37.5 -10t-9.5 -21l6 -129h-725zM854 547h248
q69 0 118 39t61 95.5t0.5 112.5t-64 95t-130.5 39h-229q-61 0 -51 -72v-225q6 -40 18.5 -62t28.5 -22z" />
    <glyph glyph-name="germandbls" unicode="&#xdf;" horiz-adv-x="2039" 
d="M1014 418q113 -62 246 -62q131 0 131 90q0 32 -34.5 58t-76.5 39l-78 22q-146 44 -207 89.5t-61 136.5q0 48 21.5 84.5t53 56.5t69 39t69 34t53 40t21.5 57q0 57 -57 84.5t-146 27.5q-151 0 -215 -72t-64 -212q0 -561 11 -881h-658q14 324 14 981q0 127 68 224t191.5 157
t287.5 89.5t365 29.5q359 0 570.5 -86.5t211.5 -243.5q0 -50 -21 -89t-52 -61.5t-68 -43.5t-68 -36t-52 -37t-21 -48q0 -63 120 -115l78 -33q48 -20 89.5 -47.5t81 -66.5t62.5 -93.5t23 -117.5q0 -191 -172.5 -288t-482.5 -97q-183 0 -340 47z" />
    <glyph glyph-name="agrave" unicode="&#xe0;" horiz-adv-x="1740" 
d="M690 1436l-303 364h590l121 -364h-408zM299 1165v-387q75 46 171.5 71t193.5 25q166 0 277.5 -74t111.5 -196q0 -49 -33 -55q-67 70 -190 124t-246 54q-95 0 -173 -20.5t-130 -52.5t-95.5 -81t-69 -94.5t-50.5 -105.5q-10 -73 13.5 -138t71.5 -112t118 -79t149 -43
t167.5 1t170.5 49l141 318q-34 -69 -139 -64q-63 4 -101.5 36.5t-38.5 74.5q0 52 54 90.5t151 34.5q50 -2 95 -16t77.5 -44t32.5 -71q0 -68 -10 -361h635q-11 304 -11 725q0 86 -35.5 161t-98.5 130t-149 97t-186 65.5t-212 32.5t-224.5 1t-225 -32t-212.5 -64z" />
    <glyph glyph-name="aacute" unicode="&#xe1;" horiz-adv-x="1740" 
d="M782 1800l-120 -364h407l303 364h-590zM299 1165v-387q75 46 171.5 71t193.5 25q166 0 277.5 -74t111.5 -196q0 -49 -33 -55q-67 70 -190 124t-246 54q-95 0 -173 -20.5t-130 -52.5t-95.5 -81t-69 -94.5t-50.5 -105.5q-10 -73 13.5 -138t71.5 -112t118 -79t149 -43
t167.5 1t170.5 49l141 318q-34 -69 -139 -64q-63 4 -101.5 36.5t-38.5 74.5q0 52 54 90.5t151 34.5q50 -2 95 -16t77.5 -44t32.5 -71q0 -68 -10 -361h635q-11 304 -11 725q0 86 -35.5 161t-98.5 130t-149 97t-186 65.5t-212 32.5t-224.5 1t-225 -32t-212.5 -64z" />
    <glyph glyph-name="acircumflex" unicode="&#xe2;" horiz-adv-x="1740" 
d="M889 1622l-131 -186h-404l230 364h630l230 -364h-420zM1653 49h-635q10 292 10 361q0 41 -32.5 71t-77.5 44t-95 16q-97 4 -151 -34.5t-54 -90.5q0 -42 38.5 -74.5t101.5 -36.5q105 -5 139 64l-141 -318q-82 -37 -170.5 -49t-167.5 -1t-149 43t-118 79t-71.5 112
t-13.5 138q25 60 50.5 105.5t69 94.5t95.5 81t130 52.5t173 20.5q123 0 246 -54t190 -124q33 6 33 55q0 122 -111.5 196t-277.5 74q-97 0 -193.5 -25t-171.5 -71v387q100 40 212.5 64t225 32t224.5 -1t212 -32.5t186 -65.5t149 -97t98.5 -130t35.5 -161q0 -421 11 -725z" />
    <glyph glyph-name="atilde" unicode="&#xe3;" horiz-adv-x="1740" 
d="M383 1432h272q-13 52 6 76t58 24q25 0 64.5 -17.5t77.5 -38t94 -38t110 -17.5q71 0 133.5 22.5t113.5 68.5t73.5 127.5t7.5 187.5h-269q9 -54 -9.5 -79.5t-55.5 -25.5q-28 0 -80 28t-121.5 56.5t-140.5 28.5q-78 0 -143 -23t-114.5 -69.5t-70.5 -126.5t-6 -184zM299 1165
v-387q75 46 171.5 71t193.5 25q166 0 277.5 -74t111.5 -196q0 -49 -33 -55q-67 70 -190 124t-246 54q-95 0 -173 -20.5t-130 -52.5t-95.5 -81t-69 -94.5t-50.5 -105.5q-10 -73 13.5 -138t71.5 -112t118 -79t149 -43t167.5 1t170.5 49l141 318q-34 -69 -139 -64
q-63 4 -101.5 36.5t-38.5 74.5q0 52 54 90.5t151 34.5q50 -2 95 -16t77.5 -44t32.5 -71q0 -68 -10 -361h635q-11 304 -11 725q0 86 -35.5 161t-98.5 130t-149 97t-186 65.5t-212 32.5t-224.5 1t-225 -32t-212.5 -64z" />
    <glyph glyph-name="adieresis" unicode="&#xe4;" horiz-adv-x="1740" 
d="M242 1454q-9 0 -9 6v258q0 8 9 8h518q8 0 8 -6v-258q0 -8 -10 -8h-516zM987 1442q-12 0 -12 14v260q0 10 14 10h516q15 0 15 -12v-260q0 -12 -15 -12h-518zM299 1165v-387q75 46 171.5 71t193.5 25q166 0 277.5 -74t111.5 -196q0 -49 -33 -55q-67 70 -190 124t-246 54
q-95 0 -173 -20.5t-130 -52.5t-95.5 -81t-69 -94.5t-50.5 -105.5q-10 -73 13.5 -138t71.5 -112t118 -79t149 -43t167.5 1t170.5 49l141 318q-34 -69 -139 -64q-63 4 -101.5 36.5t-38.5 74.5q0 52 54 90.5t151 34.5q50 -2 95 -16t77.5 -44t32.5 -71q0 -68 -10 -361h635
q-11 304 -11 725q0 86 -35.5 161t-98.5 130t-149 97t-186 65.5t-212 32.5t-224.5 1t-225 -32t-212.5 -64z" />
    <glyph glyph-name="aring" unicode="&#xe5;" horiz-adv-x="1740" 
d="M561 1665q-1 113 83.5 173t219.5 60h45q136 -2 220.5 -65.5t84.5 -171.5q0 -116 -90 -180t-235 -64q-142 0 -233 64t-95 184zM995 1669q0 33 -24.5 56t-65.5 26h-37q-43 0 -69.5 -21t-26.5 -57q0 -42 34 -64t79 -22q44 0 77 21.5t33 60.5zM299 1165v-387q75 46 171.5 71
t193.5 25q166 0 277.5 -74t111.5 -196q0 -49 -33 -55q-67 70 -190 124t-246 54q-95 0 -173 -20.5t-130 -52.5t-95.5 -81t-69 -94.5t-50.5 -105.5q-10 -73 13.5 -138t71.5 -112t118 -79t149 -43t167.5 1t170.5 49l141 318q-34 -69 -139 -64q-63 4 -101.5 36.5t-38.5 74.5
q0 52 54 90.5t151 34.5q50 -2 95 -16t77.5 -44t32.5 -71q0 -68 -10 -361h635q-11 304 -11 725q0 86 -35.5 161t-98.5 130t-149 97t-186 65.5t-212 32.5t-224.5 1t-225 -32t-212.5 -64z" />
    <glyph glyph-name="ae" unicode="&#xe6;" horiz-adv-x="2793" 
d="M1884 -12q-145 0 -273.5 23t-237 70t-188 115t-125.5 162.5t-50 208.5q-58 182 -279 230q-97 45 -236 32.5t-243 -73.5v409q176 78 377.5 104t387.5 -6.5t310 -119.5q217 139 551 139q257 0 446.5 -79.5t292 -230.5t103.5 -358h-1053q-21 0 -31.5 -7t-11.5 -14t0 -15
q2 -68 76.5 -115t187.5 -47q105 0 176 36t86 93l502 -166q-35 -105 -148.5 -195t-279 -143t-340.5 -53zM1669 662h457q6 0 11 10t5 22q0 63 -72.5 113.5t-197.5 50.5q-113 0 -187 -41.5t-71 -114.5q1 -17 14 -26.5t23 -11.5t18 -2zM889 80q-65 -42 -171.5 -62t-221.5 -9.5
t-217.5 45t-169 107t-66.5 169.5q0 88 43 155t118.5 107.5t171.5 60.5t210 21h356l31 -47h-160q-95 0 -146 -28t-51 -81q0 -43 34.5 -72.5t79.5 -35.5t91.5 13.5t67.5 63.5v-407z" />
    <glyph glyph-name="ccedilla" unicode="&#xe7;" horiz-adv-x="1857" 
d="M975 434q86 0 156 34t90 105q90 -11 260 -34.5t260 -34.5q-44 -225 -233 -354t-484 -148q-10 -32 0 -57q129 2 210 -48t81 -139q0 -104 -105.5 -177t-273.5 -73q-167 0 -291 62l70 201q44 -23 84.5 -34t70 -10t51.5 10t33 24t11 34q0 31 -36 50.5t-108 9.5q-12 66 0 149
q-171 13 -315 66.5t-244 137.5t-144 203t-16 255q11 139 76.5 249t173.5 183t247.5 115.5t307.5 54.5q222 32 412.5 -20t311 -172t149.5 -285l-561 -101q-13 78 -88 117t-179 39q-113 0 -193.5 -54.5t-80.5 -142.5q0 -103 87 -159t210 -56z" />
    <glyph glyph-name="egrave" unicode="&#xe8;" horiz-adv-x="1837" 
d="M723 1436l-303 364h590l120 -364h-407zM944 403q112 0 180 39t84 103l500 -166q-35 -105 -148.5 -195t-279 -143t-340.5 -53q-242 0 -435.5 78.5t-311.5 232t-127 358.5q-5 123 37.5 226.5t122 176t190.5 123.5t242 75t276 24q393 0 617 -175.5t225 -492.5h-1053
q-21 0 -31.5 -7t-11.5 -14t0 -15q1 -76 76 -125.5t188 -49.5zM928 870q-119 0 -189 -44t-69 -124q1 -17 14 -26.5t23 -11.5t18 -2h457q6 0 11 10t5 22q0 70 -69.5 123t-200.5 53z" />
    <glyph glyph-name="eacute" unicode="&#xe9;" horiz-adv-x="1837" 
d="M815 1800l-121 -364h408l303 364h-590zM944 403q112 0 180 39t84 103l500 -166q-35 -105 -148.5 -195t-279 -143t-340.5 -53q-242 0 -435.5 78.5t-311.5 232t-127 358.5q-5 123 37.5 226.5t122 176t190.5 123.5t242 75t276 24q393 0 617 -175.5t225 -492.5h-1053
q-21 0 -31.5 -7t-11.5 -14t0 -15q1 -76 76 -125.5t188 -49.5zM928 870q-119 0 -189 -44t-69 -124q1 -17 14 -26.5t23 -11.5t18 -2h457q6 0 11 10t5 22q0 70 -69.5 123t-200.5 53z" />
    <glyph glyph-name="ecircumflex" unicode="&#xea;" horiz-adv-x="1837" 
d="M922 1622l-131 -186h-404l229 364h631l230 -364h-420zM944 403q112 0 180 39t84 103l500 -166q-35 -105 -148.5 -195t-279 -143t-340.5 -53q-242 0 -435.5 78.5t-311.5 232t-127 358.5q-5 123 37.5 226.5t122 176t190.5 123.5t242 75t276 24q393 0 617 -175.5t225 -492.5
h-1053q-21 0 -31.5 -7t-11.5 -14t0 -15q1 -76 76 -125.5t188 -49.5zM928 870q-119 0 -189 -44t-69 -124q1 -17 14 -26.5t23 -11.5t18 -2h457q6 0 11 10t5 22q0 70 -69.5 123t-200.5 53z" />
    <glyph glyph-name="edieresis" unicode="&#xeb;" horiz-adv-x="1837" 
d="M276 1454q-8 0 -8 6v258q0 8 8 8h519q8 0 8 -6v-258q0 -8 -10 -8h-517zM1022 1442q-12 0 -12 14v260q0 10 14 10h516q14 0 14 -12v-260q0 -12 -14 -12h-518zM944 403q112 0 180 39t84 103l500 -166q-35 -105 -148.5 -195t-279 -143t-340.5 -53q-242 0 -435.5 78.5
t-311.5 232t-127 358.5q-5 123 37.5 226.5t122 176t190.5 123.5t242 75t276 24q393 0 617 -175.5t225 -492.5h-1053q-21 0 -31.5 -7t-11.5 -14t0 -15q1 -76 76 -125.5t188 -49.5zM928 870q-119 0 -189 -44t-69 -124q1 -17 14 -26.5t23 -11.5t18 -2h457q6 0 11 10t5 22
q0 70 -69.5 123t-200.5 53z" />
    <glyph glyph-name="igrave" unicode="&#xec;" horiz-adv-x="776" 
d="M195 1436l-304 364h590l121 -364h-407zM76 49q0 88 10.5 520.5t3.5 651.5h586q0 -787 22 -1172h-622z" />
    <glyph glyph-name="iacute" unicode="&#xed;" horiz-adv-x="776" 
d="M287 1800l-121 -364h407l304 364h-590zM76 49q0 88 10.5 520.5t3.5 651.5h586q0 -787 22 -1172h-622z" />
    <glyph glyph-name="icircumflex" unicode="&#xee;" horiz-adv-x="776" 
d="M395 1593l-100 -157h-289l187 364h419l187 -364h-303zM90 1221h586q0 -787 22 -1172h-622q0 88 10.5 520.5t3.5 651.5z" />
    <glyph glyph-name="idieresis" unicode="&#xef;" horiz-adv-x="802" 
d="M37 1454q-8 0 -8 8v256q0 8 10 8h285q6 0 6 -8v-256q0 -8 -8 -8h-285zM473 1442q-12 0 -12 16v256q0 12 16 12h285q14 0 14 -14v-256q0 -14 -16 -14h-287zM90 49q0 73 9.5 512t2.5 660h588q0 -764 21 -1172h-621z" />
    <glyph glyph-name="eth" unicode="&#xf0;" horiz-adv-x="1861" 
d="M1780 1348l-197 -156q184 -218 184 -535q0 -206 -113.5 -356t-305.5 -224.5t-439 -74.5q-234 0 -420.5 60t-297.5 179t-111 279q0 102 42 184t111 132.5t158 80.5t183 35t186.5 -10.5t167.5 -50.5l182 -240q-38 44 -83 64t-112 20q-92 0 -156.5 -47.5t-64.5 -124.5
q0 -85 72 -132.5t184 -47.5q131 0 205 75.5t74 233.5q0 147 -95 258.5t-266 157t-409 -1.5l368 418q268 -15 469 -115l199 164z" />
    <glyph glyph-name="ntilde" unicode="&#xf1;" horiz-adv-x="1708" 
d="M354 1432h273q-13 52 5.5 76t57.5 24q25 0 64.5 -17.5t77.5 -38t94 -38t110 -17.5q71 0 133.5 22.5t113.5 68.5t73.5 127.5t7.5 187.5h-268q8 -54 -10.5 -79.5t-55.5 -25.5q-28 0 -80 28t-121.5 56.5t-140.5 28.5q-78 0 -143 -23t-114.5 -69.5t-70.5 -126.5t-6 -184z
M1004 49q2 39 8 136t9 154.5t6 145t3 162.5q0 49 -18.5 83t-45.5 47.5t-57 17.5t-54 -1t-36 -14l129 416q83 37 175 51.5t180 3t159 -47.5t114.5 -108t43.5 -171v-875h-616zM80 49q-4 144 2.5 384t8.5 391t-15 397h606q0 -293 18 -494q-26 -209 0 -678h-620z" />
    <glyph glyph-name="ograve" unicode="&#xf2;" horiz-adv-x="1884" 
d="M745 1436l-303 364h590l121 -364h-408zM938 -20q-116 0 -227.5 19.5t-211.5 56t-182.5 93.5t-140.5 127.5t-86 161.5t-18 193q38 318 265.5 484.5t600.5 166.5q149 0 283.5 -27t245 -82t189 -132t117.5 -182t29 -228q-26 -308 -257.5 -479.5t-606.5 -171.5zM948 414
q140 0 212.5 60.5t72.5 150.5q0 43 -15 80.5t-47.5 70t-92 51.5t-140.5 19q-274 0 -274 -199q0 -92 74.5 -162.5t209.5 -70.5z" />
    <glyph glyph-name="oacute" unicode="&#xf3;" horiz-adv-x="1884" 
d="M838 1800l-121 -364h407l303 364h-589zM938 -20q-116 0 -227.5 19.5t-211.5 56t-182.5 93.5t-140.5 127.5t-86 161.5t-18 193q38 318 265.5 484.5t600.5 166.5q149 0 283.5 -27t245 -82t189 -132t117.5 -182t29 -228q-26 -308 -257.5 -479.5t-606.5 -171.5zM948 414
q140 0 212.5 60.5t72.5 150.5q0 43 -15 80.5t-47.5 70t-92 51.5t-140.5 19q-274 0 -274 -199q0 -92 74.5 -162.5t209.5 -70.5z" />
    <glyph glyph-name="ocircumflex" unicode="&#xf4;" horiz-adv-x="1884" 
d="M944 1622l-131 -186h-403l229 364h631l229 -364h-420zM938 1282q149 0 283.5 -27t245 -82t189 -132t117.5 -182t29 -228q-26 -308 -257.5 -479.5t-606.5 -171.5q-116 0 -227.5 19.5t-211.5 56t-182.5 93.5t-140.5 127.5t-86 161.5t-18 193q38 318 265.5 484.5
t600.5 166.5zM948 414q140 0 212.5 60.5t72.5 150.5q0 43 -15 80.5t-47.5 70t-92 51.5t-140.5 19q-274 0 -274 -199q0 -92 74.5 -162.5t209.5 -70.5z" />
    <glyph glyph-name="otilde" unicode="&#xf5;" horiz-adv-x="1884" 
d="M438 1432h273q-13 52 5.5 76t57.5 24q25 0 64.5 -17.5t77.5 -38t94 -38t110 -17.5q71 0 133.5 22.5t113.5 68.5t73.5 127.5t7.5 187.5h-268q8 -54 -10.5 -79.5t-55.5 -25.5q-28 0 -80 28t-121.5 56.5t-140.5 28.5q-78 0 -143 -23t-114.5 -69.5t-70.5 -126.5t-6 -184z
M938 -20q-116 0 -227.5 19.5t-211.5 56t-182.5 93.5t-140.5 127.5t-86 161.5t-18 193q38 318 265.5 484.5t600.5 166.5q149 0 283.5 -27t245 -82t189 -132t117.5 -182t29 -228q-26 -308 -257.5 -479.5t-606.5 -171.5zM948 414q140 0 212.5 60.5t72.5 150.5q0 43 -15 80.5
t-47.5 70t-92 51.5t-140.5 19q-274 0 -274 -199q0 -92 74.5 -162.5t209.5 -70.5z" />
    <glyph glyph-name="odieresis" unicode="&#xf6;" horiz-adv-x="1884" 
d="M297 1454q-8 0 -8 6v258q0 8 8 8h518q8 0 8 -6v-258q0 -8 -10 -8h-516zM1042 1442q-12 0 -12 14v260q0 10 14 10h517q14 0 14 -12v-260q0 -12 -14 -12h-519zM938 -20q-116 0 -227.5 19.5t-211.5 56t-182.5 93.5t-140.5 127.5t-86 161.5t-18 193q38 318 265.5 484.5
t600.5 166.5q149 0 283.5 -27t245 -82t189 -132t117.5 -182t29 -228q-26 -308 -257.5 -479.5t-606.5 -171.5zM948 414q140 0 212.5 60.5t72.5 150.5q0 43 -15 80.5t-47.5 70t-92 51.5t-140.5 19q-274 0 -274 -199q0 -92 74.5 -162.5t209.5 -70.5z" />
    <glyph glyph-name="divide" unicode="&#xf7;" horiz-adv-x="1214" 
d="M399 973q-8 0 -8 8v233q0 11 10 11h408q10 0 10 -8v-234q0 -10 -12 -10h-408zM76 838h1063v-365h-1063v365zM399 86q-8 0 -8 8v234q0 10 10 10h408q10 0 10 -8v-234q0 -10 -12 -10h-408z" />
    <glyph glyph-name="oslash" unicode="&#xf8;" horiz-adv-x="1884" 
d="M1595 1096q232 -177 209 -465q-26 -308 -257.5 -479.5t-606.5 -171.5q-308 0 -543 122l-194 -161l-80 98l162 135q-112 85 -168 200.5t-43 256.5q38 318 265.5 484.5t600.5 166.5q316 0 543 -115l194 162l82 -96zM666 647q0 -66 41 -125l368 307q-63 17 -135 17
q-274 0 -274 -199zM950 414q140 0 212.5 60.5t72.5 150.5q0 80 -47 135l-381 -318q61 -28 143 -28z" />
    <glyph glyph-name="ugrave" unicode="&#xf9;" horiz-adv-x="1710" 
d="M662 1436l-304 364h590l121 -364h-407zM709 1221q-35 -440 -35 -621q0 -56 18.5 -92.5t47 -50t62.5 -14t65 9t55 24.5l-131 -401q-51 -24 -116 -40.5t-136.5 -21t-142 3t-132.5 33.5t-108 67t-68.5 107.5t-13.5 151.5q19 108 25 234.5t4.5 195t-11 225.5t-10.5 189h627z
M1618 1221q0 -77 -1 -281.5t-1 -322t4.5 -282.5t13.5 -286h-628q2 50 7.5 159t9 200t3.5 163q0 357 -14 650h606z" />
    <glyph glyph-name="uacute" unicode="&#xfa;" horiz-adv-x="1710" 
d="M754 1800l-121 -364h407l303 364h-589zM709 1221q-35 -440 -35 -621q0 -56 18.5 -92.5t47 -50t62.5 -14t65 9t55 24.5l-131 -401q-51 -24 -116 -40.5t-136.5 -21t-142 3t-132.5 33.5t-108 67t-68.5 107.5t-13.5 151.5q19 108 25 234.5t4.5 195t-11 225.5t-10.5 189h627z
M1618 1221q0 -77 -1 -281.5t-1 -322t4.5 -282.5t13.5 -286h-628q2 50 7.5 159t9 200t3.5 163q0 357 -14 650h606z" />
    <glyph glyph-name="ucircumflex" unicode="&#xfb;" horiz-adv-x="1710" 
d="M1184 1800l229 -364h-420l-135 186l-131 -186h-403l229 364h631zM674 600q0 -56 18.5 -92.5t47 -50t62.5 -14t65 9t55 24.5l-131 -401q-51 -24 -116 -40.5t-136.5 -21t-142 3t-132.5 33.5t-108 67t-68.5 107.5t-13.5 151.5q19 108 25 234.5t4.5 195t-11 225.5t-10.5 189
h627q-35 -440 -35 -621zM1634 49h-628q2 50 7.5 159t9 200t3.5 163q0 357 -14 650h606q0 -77 -1 -281.5t-1 -322t4.5 -282.5t13.5 -286z" />
    <glyph glyph-name="udieresis" unicode="&#xfc;" horiz-adv-x="1710" 
d="M213 1454q-8 0 -8 6v258q0 8 8 8h518q8 0 8 -6v-258q0 -8 -10 -8h-516zM958 1442q-12 0 -12 14v260q0 10 15 10h516q14 0 14 -12v-260q0 -12 -14 -12h-519zM709 1221q-35 -440 -35 -621q0 -56 18.5 -92.5t47 -50t62.5 -14t65 9t55 24.5l-131 -401q-51 -24 -116 -40.5
t-136.5 -21t-142 3t-132.5 33.5t-108 67t-68.5 107.5t-13.5 151.5q19 108 25 234.5t4.5 195t-11 225.5t-10.5 189h627zM1618 1221q0 -77 -1 -281.5t-1 -322t4.5 -282.5t13.5 -286h-628q2 50 7.5 159t9 200t3.5 163q0 357 -14 650h606z" />
    <glyph glyph-name="yacute" unicode="&#xfd;" horiz-adv-x="1847" 
d="M1409 1800l-303 -364h-408l121 364h590zM1090 1235h702q-276 -754 -465 -1430h-569q14 18 27.5 36.5t25.5 39t20 34.5t19 36.5t15.5 31.5t15 32.5t12.5 27.5l-10 2h-426q-182 637 -398 1190h643q64 -479 140 -829q25 -57 65 -60q12 3 20 6.5t18.5 17.5t15.5 38
q93 498 129 827z" />
    <glyph glyph-name="thorn" unicode="&#xfe;" horiz-adv-x="1947" 
d="M92 -197q15 303 9.5 501t-14.5 556.5t-3 630.5h614q-20 -471 -16 -850q3 -107 91.5 -165t209.5 -58q129 0 206 58t77 145q0 80 -61.5 142t-166.5 66q-73 0 -124.5 -25.5t-67.5 -78.5l129 483q100 23 201 25t192 -17t173 -55t147.5 -90.5t112 -121t69 -149t16.5 -171.5
q-14 -174 -122 -319t-274.5 -226.5t-352.5 -81.5q-111 0 -225.5 36t-206.5 89q-11 1 -16.5 -3t-6 -11.5t0 -14.5t3 -17t2.5 -15v-263h-596z" />
    <glyph glyph-name="ydieresis" unicode="&#xff;" horiz-adv-x="1847" 
d="M279 1454q-9 0 -9 6v258q0 8 9 8h518q8 0 8 -6v-258q0 -8 -10 -8h-516zM1024 1442q-12 0 -12 14v260q0 10 14 10h516q14 0 14 -12v-260q0 -12 -14 -12h-518zM1090 1235h702q-276 -754 -465 -1430h-569q14 18 27.5 36.5t25.5 39t20 34.5t19 36.5t15.5 31.5t15 32.5
t12.5 27.5l-10 2h-426q-182 637 -398 1190h643q64 -479 140 -829q25 -57 65 -60q12 3 20 6.5t18.5 17.5t15.5 38q93 498 129 827z" />
    <glyph glyph-name="Amacron" unicode="&#x100;" horiz-adv-x="2400" 
d="M723 1735v260h950v-260h-950zM1853 1491q46 -204 138.5 -465.5t188.5 -525.5t144 -451h-931l-27 160q-28 22 -53 22h-303q-36 0 -58 -22l-26 -160h-865q42 149 114.5 349.5t136 362.5t132 364.5t107.5 365.5h1302zM977 410q-4 -28 6.5 -47t28.5 -19h297q26 0 44 19t15 53
q-10 91 -79 382.5t-105 291.5h-21q-28 0 -61.5 -99t-60.5 -232.5t-43.5 -226.5t-20.5 -122z" />
    <glyph glyph-name="amacron" unicode="&#x101;" horiz-adv-x="1740" 
d="M408 1468v261h950v-261h-950zM299 1165v-387q75 46 171.5 71t193.5 25q166 0 277.5 -74t111.5 -196q0 -49 -33 -55q-67 70 -190 124t-246 54q-95 0 -173 -20.5t-130 -52.5t-95.5 -81t-69 -94.5t-50.5 -105.5q-10 -73 13.5 -138t71.5 -112t118 -79t149 -43t167.5 1
t170.5 49l141 318q-34 -69 -139 -64q-63 4 -101.5 36.5t-38.5 74.5q0 52 54 90.5t151 34.5q50 -2 95 -16t77.5 -44t32.5 -71q0 -68 -10 -361h635q-11 304 -11 725q0 86 -35.5 161t-98.5 130t-149 97t-186 65.5t-212 32.5t-224.5 1t-225 -32t-212.5 -64z" />
    <glyph glyph-name="Abreve" unicode="&#x102;" horiz-adv-x="2400" 
d="M655 2023h367q4 -51 52 -75.5t120 -24.5q156 0 172 100h365q0 -162 -136 -246.5t-401 -84.5q-264 -1 -401.5 83.5t-137.5 247.5zM1853 1491q46 -204 138.5 -465.5t188.5 -525.5t144 -451h-931l-27 160q-28 22 -53 22h-303q-36 0 -58 -22l-26 -160h-865
q42 149 114.5 349.5t136 362.5t132 364.5t107.5 365.5h1302zM977 410q-4 -28 6.5 -47t28.5 -19h297q26 0 44 19t15 53q-10 91 -79 382.5t-105 291.5h-21q-28 0 -61.5 -99t-60.5 -232.5t-43.5 -226.5t-20.5 -122z" />
    <glyph glyph-name="abreve" unicode="&#x103;" horiz-adv-x="1740" 
d="M344 1749h367q4 -51 52 -74.5t120 -23.5q156 0 172 98h364q0 -161 -136 -246.5t-400 -85.5t-401.5 84.5t-137.5 247.5zM299 1165v-387q75 46 171.5 71t193.5 25q166 0 277.5 -74t111.5 -196q0 -49 -33 -55q-67 70 -190 124t-246 54q-95 0 -173 -20.5t-130 -52.5
t-95.5 -81t-69 -94.5t-50.5 -105.5q-10 -73 13.5 -138t71.5 -112t118 -79t149 -43t167.5 1t170.5 49l141 318q-34 -69 -139 -64q-63 4 -101.5 36.5t-38.5 74.5q0 52 54 90.5t151 34.5q50 -2 95 -16t77.5 -44t32.5 -71q0 -68 -10 -361h635q-11 304 -11 725q0 86 -35.5 161
t-98.5 130t-149 97t-186 65.5t-212 32.5t-224.5 1t-225 -32t-212.5 -64z" />
    <glyph glyph-name="Aogonek" unicode="&#x104;" horiz-adv-x="2400" 
d="M2013 49q-141 -21 -207 -65t-69 -95q-3 -73 106 -73q76 0 142 26v-317q-161 -68 -314 -68q-211 0 -320.5 77t-109.5 214q0 41 26 89t56 84t52 76t16 69l-25 143q-22 22 -53 22h-303q-36 0 -58 -22l-26 -160h-865q42 149 114.5 349.5t136 362.5t132 364.5t107.5 365.5
h1302q46 -204 138.5 -465.5t188.5 -525.5t144 -451h-311zM1309 344q26 0 44 19t15 53q-4 39 -38 196.5t-80 317.5t-72 160h-15h-6q-25 0 -57.5 -99.5t-59 -231.5t-43.5 -227t-20 -122q-4 -28 6.5 -47t28.5 -19h297z" />
    <glyph glyph-name="aogonek" unicode="&#x105;" horiz-adv-x="1748" 
d="M1325 -559q-210 0 -320 78t-110 213q0 52 34 113.5t64.5 114.5t24.5 89q10 292 10 361q0 41 -32.5 71t-77.5 44t-95 16q-97 4 -151 -34.5t-54 -90.5q0 -42 38.5 -74.5t101.5 -36.5q105 -5 139 64l-141 -318q-82 -37 -170.5 -49t-167.5 -1t-149 43t-118 79t-71.5 112
t-13.5 138q25 60 50.5 105.5t69 94.5t95.5 81t130 52.5t173 20.5q123 0 246 -54t190 -124q33 6 33 55q0 122 -111.5 196t-277.5 74q-97 0 -193.5 -25t-171.5 -71v387q100 40 212.5 64t225 32t224.5 -1t212 -32.5t186 -65.5t149 -97t98.5 -130t35.5 -161q0 -421 11 -725
q-139 -24 -206.5 -69.5t-72.5 -98.5q-3 -39 31.5 -60.5t91.5 -21.5q72 0 141 27v-318q-82 -35 -153 -51t-160 -16z" />
    <glyph glyph-name="Cacute" unicode="&#x106;" horiz-adv-x="2279" 
d="M1055 2066l-121 -364h405l306 364h-590zM1149 -8q-175 0 -317 21.5t-245.5 60t-182 97t-128 125t-81.5 152.5t-46 171.5t-18 189.5q-7 195 60.5 338t202.5 230t322 128t433 41q450 -7 714 -158t318 -430l-766 -129q2 91 -67 141t-203 50q-147 0 -230.5 -52t-83.5 -163
q0 -121 103.5 -202t234.5 -81q107 0 176.5 47.5t79.5 141.5l756 -86q-16 -106 -65.5 -200t-136.5 -174t-204.5 -137t-277.5 -89.5t-348 -32.5z" />
    <glyph glyph-name="cacute" unicode="&#x107;" horiz-adv-x="1857" 
d="M823 1800l-121 -364h408l303 364h-590zM907 1268q222 32 412.5 -20t311 -172t149.5 -285l-561 -101q-13 78 -88 117t-179 39q-113 0 -193.5 -54.5t-80.5 -142.5q0 -103 87 -159t210 -56q86 0 156 34t90 105q90 -11 260 -34.5t260 -34.5q-46 -243 -262 -373.5t-549 -130.5
q-189 0 -354.5 48.5t-281 133.5t-169.5 211.5t-23 272.5q11 139 76.5 249t173.5 183t247.5 115.5t307.5 54.5z" />
    <glyph glyph-name="Ccircumflex" unicode="&#x108;" horiz-adv-x="2279" 
d="M1145 1888l-131 -186h-404l230 364h630l230 -364h-422zM1169 522q107 0 176.5 47.5t79.5 141.5l756 -86q-16 -106 -65.5 -200t-136.5 -174t-204.5 -137t-277.5 -89.5t-348 -32.5q-175 0 -317 21.5t-245.5 60t-182 97t-128 125t-81.5 152.5t-46 171.5t-18 189.5
q-7 195 60.5 338t202.5 230t322 128t433 41q450 -7 714 -158t318 -430l-766 -129q2 91 -67 141t-203 50q-147 0 -230.5 -52t-83.5 -163q0 -121 103.5 -202t234.5 -81z" />
    <glyph glyph-name="ccircumflex" unicode="&#x109;" horiz-adv-x="1857" 
d="M930 1622l-131 -186h-404l230 364h630l230 -364h-420zM975 434q86 0 156 34t90 105q90 -11 260 -34.5t260 -34.5q-46 -243 -262 -373.5t-549 -130.5q-189 0 -354.5 48.5t-281 133.5t-169.5 211.5t-23 272.5q11 139 76.5 249t173.5 183t247.5 115.5t307.5 54.5
q222 32 412.5 -20t311 -172t149.5 -285l-561 -101q-13 78 -88 117t-179 39q-113 0 -193.5 -54.5t-80.5 -142.5q0 -103 87 -159t210 -56z" />
    <glyph glyph-name="Cdotaccent" unicode="&#x10a;" horiz-adv-x="2279" 
d="M864 1700q-14 0 -14 14v318q0 12 16 12h555q15 0 15 -16v-316q0 -12 -17 -12h-555zM1149 -8q-175 0 -317 21.5t-245.5 60t-182 97t-128 125t-81.5 152.5t-46 171.5t-18 189.5q-7 195 60.5 338t202.5 230t322 128t433 41q450 -7 714 -158t318 -430l-766 -129q2 91 -67 141
t-203 50q-147 0 -230.5 -52t-83.5 -163q0 -121 103.5 -202t234.5 -81q107 0 176.5 47.5t79.5 141.5l756 -86q-16 -106 -65.5 -200t-136.5 -174t-204.5 -137t-277.5 -89.5t-348 -32.5z" />
    <glyph glyph-name="cdotaccent" unicode="&#x10b;" horiz-adv-x="1857" 
d="M647 1442q-12 0 -12 16v316q0 12 16 12h553q17 0 17 -14v-316q0 -14 -19 -14h-555zM907 1268q222 32 412.5 -20t311 -172t149.5 -285l-561 -101q-13 78 -88 117t-179 39q-113 0 -193.5 -54.5t-80.5 -142.5q0 -103 87 -159t210 -56q86 0 156 34t90 105q90 -11 260 -34.5
t260 -34.5q-46 -243 -262 -373.5t-549 -130.5q-189 0 -354.5 48.5t-281 133.5t-169.5 211.5t-23 272.5q11 139 76.5 249t173.5 183t247.5 115.5t307.5 54.5z" />
    <glyph glyph-name="Ccaron" unicode="&#x10c;" horiz-adv-x="2279" 
d="M1458 1702h-631l-227 364h420l133 -186l131 186h404zM1169 522q107 0 176.5 47.5t79.5 141.5l756 -86q-16 -106 -65.5 -200t-136.5 -174t-204.5 -137t-277.5 -89.5t-348 -32.5q-175 0 -317 21.5t-245.5 60t-182 97t-128 125t-81.5 152.5t-46 171.5t-18 189.5
q-7 195 60.5 338t202.5 230t322 128t433 41q450 -7 714 -158t318 -430l-766 -129q2 91 -67 141t-203 50q-147 0 -230.5 -52t-83.5 -163q0 -121 103.5 -202t234.5 -81z" />
    <glyph glyph-name="ccaron" unicode="&#x10d;" horiz-adv-x="1857" 
d="M1245 1415h-631l-229 365h420l133 -189l133 189h402zM975 434q86 0 156 34t90 105q90 -11 260 -34.5t260 -34.5q-46 -243 -262 -373.5t-549 -130.5q-189 0 -354.5 48.5t-281 133.5t-169.5 211.5t-23 272.5q11 139 76.5 249t173.5 183t247.5 115.5t307.5 54.5
q222 32 412.5 -20t311 -172t149.5 -285l-561 -101q-13 78 -88 117t-179 39q-113 0 -193.5 -54.5t-80.5 -142.5q0 -103 87 -159t210 -56z" />
    <glyph glyph-name="Dcaron" unicode="&#x10e;" horiz-adv-x="2172" 
d="M1397 1702h-631l-227 364h419l134 -186l131 186h403zM1243 1491q111 0 212.5 -15.5t184.5 -44t155 -68.5t124.5 -89t93 -106.5t61 -120.5t28 -130.5t-6.5 -136.5q-14 -109 -54.5 -211.5t-115 -198t-175 -166.5t-244 -113.5t-312.5 -41.5l-1085 2q-6 170 2 458.5t12.5 489
t-14.5 492.5h1134zM1075 530q66 0 119.5 26.5t85.5 68.5t49 90t17 96q0 89 -59 146t-175 57h-283q-63 0 -63 -84v-254q0 -76 34.5 -111t73.5 -35h201z" />
    <glyph glyph-name="dcaron" unicode="&#x10f;" horiz-adv-x="2533" 
d="M1276 49q-1 108 2.5 304t3.5 282q0 65 -49 114t-121.5 72t-153.5 23q-133 0 -207.5 -54t-72.5 -141q0 -82 67.5 -137.5t180.5 -58.5q72 0 123 25.5t67 78.5l-129 -500q-120 -29 -239 -30t-223 24.5t-191.5 77t-148 122.5t-90 167t-19.5 205q12 118 62.5 224.5t127 184.5
t171.5 134t199.5 81.5t205.5 18.5q211 -22 411 -154q14 -1 20.5 8.5t6.5 26.5q0 26 -6 344h584q1 -129 -2 -439.5t1.5 -549.5t22.5 -453h-604zM2333 1016h-336l49 471h422z" />
    <glyph glyph-name="Dcroat" unicode="&#x110;" horiz-adv-x="2277" 
d="M1348 1491q220 0 396 -59t282 -158t152.5 -227t21.5 -267q-13 -109 -53.5 -211.5t-115.5 -198t-176 -166.5t-244.5 -113.5t-312.5 -41.5l-1083 2q-7 166 6 635h-141v176h147q7 380 -12 629h1133zM1180 530q67 0 120.5 26.5t85 68.5t48 90t16.5 96q0 89 -58 146t-173 57
h-283q-64 0 -64 -84v-68h209v-176h-209v-10q0 -76 34 -111t75 -35h199z" />
    <glyph glyph-name="dcroat" unicode="&#x111;" horiz-adv-x="2045" 
d="M1974 1272h-116q-5 -255 -3 -610t25 -613h-604q-1 108 2.5 304t3.5 282q0 65 -49 114t-121.5 72t-153.5 23q-133 0 -207.5 -54t-72.5 -141q0 -82 67.5 -137.5t180.5 -58.5q72 0 123 25.5t67 78.5l-129 -500q-120 -29 -239 -30t-223 24.5t-191.5 77t-148 122.5t-90 167
t-19.5 205q12 118 62.5 224.5t127 184.5t171.5 134t199.5 81.5t205.5 18.5q211 -22 411 -154q14 -1 20.5 8.5t6.5 26.5q0 80 -2 125h-172v147h170q-2 25 -2 72h584v-72h116v-147z" />
    <glyph glyph-name="Emacron" unicode="&#x112;" horiz-adv-x="1796" 
d="M444 1735v260h951v-260h-951zM1692 1077h-791q-78 0 -78 -69v-84q0 -45 45 -45h783v-230h-783q-45 0 -45 -39v-92q0 -11 3.5 -22t12.5 -24.5t29.5 -21.5t49.5 -8h833v-393h-1657q-4 179 15 447t33 530.5t1 464.5h1549v-414z" />
    <glyph glyph-name="emacron" unicode="&#x113;" horiz-adv-x="1837" 
d="M442 1468v261h951v-261h-951zM944 403q112 0 180 39t84 103l500 -166q-35 -105 -148.5 -195t-279 -143t-340.5 -53q-242 0 -435.5 78.5t-311.5 232t-127 358.5q-5 123 37.5 226.5t122 176t190.5 123.5t242 75t276 24q393 0 617 -175.5t225 -492.5h-1053q-21 0 -31.5 -7
t-11.5 -14t0 -15q1 -76 76 -125.5t188 -49.5zM928 870q-119 0 -189 -44t-69 -124q1 -17 14 -26.5t23 -11.5t18 -2h457q6 0 11 10t5 22q0 70 -69.5 123t-200.5 53z" />
    <glyph glyph-name="Ebreve" unicode="&#x114;" horiz-adv-x="1796" 
d="M379 2023h366q4 -51 52.5 -75.5t120.5 -24.5q156 0 172 100h364q0 -162 -136 -246.5t-400 -84.5q-264 -1 -401.5 83.5t-137.5 247.5zM1692 1077h-791q-78 0 -78 -69v-84q0 -45 45 -45h783v-230h-783q-45 0 -45 -39v-92q0 -11 3.5 -22t12.5 -24.5t29.5 -21.5t49.5 -8h833
v-393h-1657q-4 179 15 447t33 530.5t1 464.5h1549v-414z" />
    <glyph glyph-name="ebreve" unicode="&#x115;" horiz-adv-x="1837" 
d="M377 1749h366q4 -51 52 -74.5t120 -23.5q156 0 172 98h365q0 -161 -136.5 -246.5t-400.5 -85.5t-401 84.5t-137 247.5zM944 403q112 0 180 39t84 103l500 -166q-35 -105 -148.5 -195t-279 -143t-340.5 -53q-242 0 -435.5 78.5t-311.5 232t-127 358.5q-5 123 37.5 226.5
t122 176t190.5 123.5t242 75t276 24q393 0 617 -175.5t225 -492.5h-1053q-21 0 -31.5 -7t-11.5 -14t0 -15q1 -76 76 -125.5t188 -49.5zM928 870q-119 0 -189 -44t-69 -124q1 -17 14 -26.5t23 -11.5t18 -2h457q6 0 11 10t5 22q0 70 -69.5 123t-200.5 53z" />
    <glyph glyph-name="Edotaccent" unicode="&#x116;" horiz-adv-x="1796" 
d="M641 1700q-14 0 -14 14v318q0 12 16 12h555q14 0 14 -16v-316q0 -12 -16 -12h-555zM1692 1077h-791q-78 0 -78 -69v-84q0 -45 45 -45h783v-230h-783q-45 0 -45 -39v-92q0 -11 3.5 -22t12.5 -24.5t29.5 -21.5t49.5 -8h833v-393h-1657q-4 179 15 447t33 530.5t1 464.5h1549
v-414z" />
    <glyph glyph-name="edotaccent" unicode="&#x117;" horiz-adv-x="1837" 
d="M639 1442q-12 0 -12 16v316q0 12 16 12h553q16 0 16 -14v-316q0 -14 -18 -14h-555zM944 403q112 0 180 39t84 103l500 -166q-35 -105 -148.5 -195t-279 -143t-340.5 -53q-242 0 -435.5 78.5t-311.5 232t-127 358.5q-5 123 37.5 226.5t122 176t190.5 123.5t242 75t276 24
q393 0 617 -175.5t225 -492.5h-1053q-21 0 -31.5 -7t-11.5 -14t0 -15q1 -76 76 -125.5t188 -49.5zM928 870q-119 0 -189 -44t-69 -124q1 -17 14 -26.5t23 -11.5t18 -2h457q6 0 11 10t5 22q0 70 -69.5 123t-200.5 53z" />
    <glyph glyph-name="Eogonek" unicode="&#x118;" horiz-adv-x="1796" 
d="M1389 -543q-211 0 -321 77.5t-110 213.5q0 34 18.5 72t42 67t46 61.5t30.5 54.5t-5 46h-996q-4 179 15 447t33 530.5t1 464.5h1549v-414h-791q-78 0 -78 -69v-84q0 -45 45 -45h783v-230h-783q-45 0 -45 -39v-92q0 -11 3.5 -22t12.5 -24.5t29.5 -21.5t49.5 -8h833v-393
q-154 -20 -224 -63.5t-75 -94.5q-1 -36 27.5 -55.5t81.5 -19.5q75 0 141 26v-317q-83 -35 -154 -51.5t-159 -16.5z" />
    <glyph glyph-name="eogonek" unicode="&#x119;" horiz-adv-x="1837" 
d="M1522 137q-120 -120 -125 -215q-4 -47 29.5 -76.5t89.5 -29.5q75 0 141 26v-317q-158 -68 -314 -68q-211 0 -320.5 77t-109.5 214q0 94 131 246q-52 -6 -104 -6q-242 0 -435.5 78.5t-311.5 232t-127 358.5q-5 123 37.5 226.5t122 176t190.5 123.5t242 75t276 24
q393 0 617 -175.5t225 -492.5h-1053q-21 0 -31.5 -7t-11.5 -14t0 -15q1 -76 76 -124t188 -48q112 0 179 37.5t83 101.5l502 -166q-18 -53 -60.5 -105t-125.5 -137zM928 870q-119 0 -189 -44t-69 -124q1 -17 14 -26.5t23 -11.5t18 -2h457q6 0 11 10t5 22q0 70 -69.5 123
t-200.5 53z" />
    <glyph glyph-name="Ecaron" unicode="&#x11a;" horiz-adv-x="1796" 
d="M1235 1702h-631l-227 364h420l133 -186l131 186h403zM918 442h833v-393h-1657q-4 179 15 447t33 530.5t1 464.5h1549v-414h-791q-78 0 -78 -69v-84q0 -45 45 -45h783v-230h-783q-45 0 -45 -39v-92q0 -11 3.5 -22t12.5 -24.5t29.5 -21.5t49.5 -8z" />
    <glyph glyph-name="ecaron" unicode="&#x11b;" horiz-adv-x="1837" 
d="M1237 1415h-631l-229 365h420l133 -189l133 189h401zM944 403q112 0 180 39t84 103l500 -166q-35 -105 -148.5 -195t-279 -143t-340.5 -53q-242 0 -435.5 78.5t-311.5 232t-127 358.5q-5 123 37.5 226.5t122 176t190.5 123.5t242 75t276 24q393 0 617 -175.5t225 -492.5
h-1053q-21 0 -31.5 -7t-11.5 -14t0 -15q1 -76 76 -125.5t188 -49.5zM928 870q-119 0 -189 -44t-69 -124q1 -17 14 -26.5t23 -11.5t18 -2h457q6 0 11 10t5 22q0 70 -69.5 123t-200.5 53z" />
    <glyph glyph-name="Gcircumflex" unicode="&#x11c;" horiz-adv-x="2293" 
d="M1165 1890l-133 -188h-401l227 364h631l229 -364h-420zM1122 1042q-309 0 -309 -231q0 -105 83 -166t216 -61q171 0 225 78q-33 -114 -106 -336t-98 -303q-208 -20 -376 11.5t-280.5 100.5t-192 174t-119 223.5t-52.5 258.5q-7 58 -3.5 115t11.5 112t30 107.5t51 100.5
t75 91t102.5 79.5t133 65.5t166.5 49.5t203 31.5t242 11q243 0 436 -45t323.5 -127t210 -191t110.5 -245l-777 -178q29 138 -57.5 206t-247.5 68zM1403 49v631q403 -45 786 -51v-580h-786z" />
    <glyph glyph-name="gcircumflex" unicode="&#x11d;" horiz-adv-x="1861" 
d="M932 1622l-131 -186h-404l230 364h630l230 -364h-420zM1198 1221h574q-11 -436 -11 -922q0 -128 -73 -232.5t-191 -169t-270 -101.5t-306 -39t-302 28t-257 90v258q72 -47 187 -78.5t225 -31.5q58 0 113 12.5t105 39.5t87.5 66t60 96.5t23.5 127.5q2 131 2 307
q0 118 -77 172.5t-201 54.5q-111 0 -176.5 -40t-65.5 -124q0 -98 60 -145t157 -47q150 0 191 100l-97 -381q-68 -40 -137 -51.5t-166 -11.5q-116 0 -222.5 36.5t-189.5 102t-133.5 165t-52.5 218.5q-1 94 40 181t111.5 152t159.5 114t186.5 74.5t190.5 25.5
q98 0 215.5 -53.5t196.5 -129.5q12 -5 27.5 2.5t15.5 26.5v107z" />
    <glyph glyph-name="Gbreve" unicode="&#x11e;" horiz-adv-x="2293" 
d="M618 2023h367q4 -51 52 -75.5t120 -24.5q156 0 172 100h365q0 -162 -136 -246.5t-401 -84.5q-264 -1 -401.5 83.5t-137.5 247.5zM1124 1554q243 0 436 -45t323.5 -127t210 -191t110.5 -245l-777 -178q29 138 -57.5 206t-247.5 68q-309 0 -309 -231q0 -105 83 -166
t216 -61q171 0 225 78q-33 -114 -106 -336t-98 -303q-208 -20 -376 11.5t-280.5 100.5t-192 174t-119 223.5t-52.5 258.5q-7 58 -3.5 115t11.5 112t30 107.5t51 100.5t75 91t102.5 79.5t133 65.5t166.5 49.5t203 31.5t242 11zM1403 49v631q403 -45 786 -51v-580h-786z" />
    <glyph glyph-name="gbreve" unicode="&#x11f;" horiz-adv-x="1861" 
d="M387 1749h367q4 -51 52 -74.5t120 -23.5q156 0 172 98h364q0 -161 -136 -246.5t-400 -85.5t-401.5 84.5t-137.5 247.5zM1772 1221h-574v-107q0 -19 -15.5 -26.5t-27.5 -2.5q-79 76 -196.5 129.5t-215.5 53.5q-93 0 -190.5 -25.5t-186.5 -74.5t-159.5 -114t-111.5 -152
t-40 -181q2 -119 52.5 -218.5t133.5 -165t189.5 -102t222.5 -36.5q97 0 166 11.5t137 51.5l97 381q-41 -100 -191 -100q-97 0 -157 47t-60 145q0 84 65.5 124t176.5 40q124 0 201 -54.5t77 -172.5q0 -176 -2 -307q-1 -70 -23.5 -127.5t-60 -96.5t-87.5 -66t-105 -39.5
t-113 -12.5q-110 0 -225 31.5t-187 78.5v-258q109 -60 257 -90t302 -28t306 39t270 101.5t191 169t73 232.5q0 486 11 922z" />
    <glyph glyph-name="Gdotaccent" unicode="&#x120;" horiz-adv-x="2293" 
d="M883 1700q-15 0 -15 14v318q0 12 17 12h555q14 0 14 -16v-316q0 -12 -16 -12h-555zM1124 1554q243 0 436 -45t323.5 -127t210 -191t110.5 -245l-777 -178q29 138 -57.5 206t-247.5 68q-309 0 -309 -231q0 -105 83 -166t216 -61q171 0 225 78q-33 -114 -106 -336t-98 -303
q-208 -20 -376 11.5t-280.5 100.5t-192 174t-119 223.5t-52.5 258.5q-7 58 -3.5 115t11.5 112t30 107.5t51 100.5t75 91t102.5 79.5t133 65.5t166.5 49.5t203 31.5t242 11zM1403 49v631q403 -45 786 -51v-580h-786z" />
    <glyph glyph-name="gdotaccent" unicode="&#x121;" horiz-adv-x="1861" 
d="M649 1442q-12 0 -12 16v316q0 12 16 12h553q17 0 17 -14v-316q0 -14 -19 -14h-555zM1772 1221h-574v-107q0 -19 -15.5 -26.5t-27.5 -2.5q-79 76 -196.5 129.5t-215.5 53.5q-93 0 -190.5 -25.5t-186.5 -74.5t-159.5 -114t-111.5 -152t-40 -181q2 -119 52.5 -218.5
t133.5 -165t189.5 -102t222.5 -36.5q97 0 166 11.5t137 51.5l97 381q-41 -100 -191 -100q-97 0 -157 47t-60 145q0 84 65.5 124t176.5 40q124 0 201 -54.5t77 -172.5q0 -176 -2 -307q-1 -70 -23.5 -127.5t-60 -96.5t-87.5 -66t-105 -39.5t-113 -12.5q-110 0 -225 31.5
t-187 78.5v-258q109 -60 257 -90t302 -28t306 39t270 101.5t191 169t73 232.5q0 486 11 922z" />
    <glyph glyph-name="uni0122" unicode="&#x122;" horiz-adv-x="2293" 
d="M1124 1554q243 0 436 -45t323.5 -127t210 -191t110.5 -245l-777 -178q29 138 -57.5 206t-247.5 68q-309 0 -309 -231q0 -105 83 -166t216 -61q171 0 225 78q-33 -114 -106 -336t-98 -303q-208 -20 -376 11.5t-280.5 100.5t-192 174t-119 223.5t-52.5 258.5
q-7 58 -3.5 115t11.5 112t30 107.5t51 100.5t75 91t102.5 79.5t133 65.5t166.5 49.5t203 31.5t242 11zM1403 49v631q403 -45 786 -51v-580h-786zM881 -492l49 361h471l-139 -361h-381z" />
    <glyph glyph-name="uni0123" unicode="&#x123;" horiz-adv-x="1861" 
d="M1266 1788l-49 -361h-472l142 361h379zM1772 1221h-574v-107q0 -19 -15.5 -26.5t-27.5 -2.5q-79 76 -196.5 129.5t-215.5 53.5q-93 0 -190.5 -25.5t-186.5 -74.5t-159.5 -114t-111.5 -152t-40 -181q2 -119 52.5 -218.5t133.5 -165t189.5 -102t222.5 -36.5q97 0 166 11.5
t137 51.5l97 381q-41 -100 -191 -100q-97 0 -157 47t-60 145q0 84 65.5 124t176.5 40q124 0 201 -54.5t77 -172.5q0 -176 -2 -307q-1 -70 -23.5 -127.5t-60 -96.5t-87.5 -66t-105 -39.5t-113 -12.5q-110 0 -225 31.5t-187 78.5v-258q109 -60 257 -90t302 -28t306 39
t270 101.5t191 169t73 232.5q0 486 11 922z" />
    <glyph glyph-name="Hcircumflex" unicode="&#x124;" horiz-adv-x="2060" 
d="M1024 1890l-133 -188h-402l228 364h631l229 -364h-420zM1968 49h-745q10 245 10 443q0 25 -14.5 41t-40.5 16h-304q-38 0 -38 -55q0 -242 14 -445h-764q0 178 20.5 451t35 532t3.5 459h732q-41 -317 -41 -559q0 -43 38 -43h304q27 0 41 16t14 43q0 256 -27 543h742
q7 -263 3.5 -475t-1 -487.5t17.5 -479.5z" />
    <glyph glyph-name="hcircumflex" unicode="&#x125;" horiz-adv-x="1693" 
d="M381 1890l-133 -188h-402l228 364h631l229 -364h-420zM694 745q-14 -53 -11.5 -302.5t15.5 -393.5h-622q0 164 4 475t5 485.5t-5 481.5l602 2q-12 -169 -10 -450t22 -298zM1606 49h-633q31 407 31 602q0 53 -26 88.5t-61.5 46.5t-69 10.5t-50.5 -12.5l129 416
q67 28 141.5 41t149.5 11.5t143 -24.5t120.5 -64t83.5 -111t31 -160q0 -475 11 -844z" />
    <glyph glyph-name="Hbar" unicode="&#x126;" horiz-adv-x="2246" 
d="M2136 1087h-90q0 -65 -1 -251.5t-0.5 -281t4.5 -241t13 -264.5h-745q10 245 10 443q0 25 -14.5 41t-40.5 16h-303q-39 0 -39 -55q0 -228 12 -445h-762q0 186 27.5 555.5t32.5 482.5h-119v201h123q0 137 -4 203h731q-19 -158 -23 -203h369q-2 43 -17 203h742
q4 -136 4 -203h90v-201zM1327 948q0 92 -2 139h-391q-4 -106 -4 -155q0 -43 39 -43h303q27 0 41 16t14 43z" />
    <glyph glyph-name="hbar" unicode="&#x127;" horiz-adv-x="1767" 
d="M768 745q-14 -50 -11 -303t17 -393h-622q0 154 5 574.5t3 648.5h-111v147h109q0 13 -1 36t-1 36l600 2q-1 -12 -2 -36.5t-2 -37.5h186v-147h-190q-3 -197 1.5 -355.5t18.5 -171.5zM1679 49h-630q28 429 28 602q0 53 -26 88.5t-61.5 46.5t-69 10.5t-50.5 -12.5l129 416
q81 33 171 46.5t179 0t160 -51.5t115.5 -116t44.5 -186q0 -509 10 -844z" />
    <glyph glyph-name="Itilde" unicode="&#x128;" horiz-adv-x="925" 
d="M-66 1686h273q-13 52 5.5 76t57.5 24q25 0 64.5 -17.5t77.5 -38t94 -38t110 -17.5q56 0 107.5 13t98 44t77.5 76.5t44 115t1 155.5h-268q9 -53 -10 -79t-56 -26q-24 0 -62 18t-75 39.5t-93 39.5t-112 18q-78 0 -143 -23.5t-114.5 -70t-70.5 -126t-6 -183.5zM88 49
q-5 214 8 700.5t6 741.5h729q-12 -208 -13 -424.5t4.5 -353t16.5 -352.5t15 -312h-766z" />
    <glyph glyph-name="itilde" unicode="&#x129;" horiz-adv-x="776" 
d="M12 1432h238q-10 52 5.5 76t47.5 24q20 0 52.5 -17.5t63.5 -38t78 -38t91 -17.5q34 0 67.5 13.5t65.5 43.5t53 77.5t31.5 115t-0.5 156.5h-236q14 -105 -55 -105q-20 0 -51.5 17.5t-62.5 39t-77 39t-90 17.5q-105 0 -173.5 -101.5t-47.5 -301.5zM76 49q0 88 10.5 520.5
t3.5 651.5h586q0 -787 22 -1172h-622z" />
    <glyph glyph-name="Imacron" unicode="&#x12a;" horiz-adv-x="925" 
d="M-16 1735v260h950v-260h-950zM88 49q-5 214 8 700.5t6 741.5h729q-12 -208 -13 -424.5t4.5 -353t16.5 -352.5t15 -312h-766z" />
    <glyph glyph-name="imacron" unicode="&#x12b;" horiz-adv-x="776" 
d="M0 1468v261h774v-261h-774zM76 49q0 88 10.5 520.5t3.5 651.5h586q0 -787 22 -1172h-622z" />
    <glyph glyph-name="Ibreve" unicode="&#x12c;" horiz-adv-x="925" 
d="M-82 2023h367q4 -51 52 -75.5t120 -24.5q156 0 172 100h364q0 -162 -136 -246.5t-400 -84.5q-264 -1 -401.5 83.5t-137.5 247.5zM88 49q-5 214 8 700.5t6 741.5h729q-12 -208 -13 -424.5t4.5 -353t16.5 -352.5t15 -312h-766z" />
    <glyph glyph-name="ibreve" unicode="&#x12d;" horiz-adv-x="776" 
d="M-55 1749h301q6 -50 46.5 -74t92.5 -24q50 0 91 23.5t48 74.5h301q0 -157 -121 -244.5t-319 -87.5t-319 86.5t-121 245.5zM76 49q0 88 10.5 520.5t3.5 651.5h586q0 -787 22 -1172h-622z" />
    <glyph glyph-name="Iogonek" unicode="&#x12e;" horiz-adv-x="929" 
d="M520 -559q-210 0 -320 78t-110 213q0 33 18.5 72t42 69t44 64.5t24.5 59t-16 52.5h-111q-5 214 7 700.5t5 741.5h732q-12 -208 -13 -423.5t4 -355t15.5 -350.5t13.5 -313q-263 -59 -274 -174q-1 -36 28.5 -56t83.5 -20q71 0 140 27v-318q-156 -67 -314 -67z" />
    <glyph glyph-name="iogonek" unicode="&#x12f;" horiz-adv-x="776" 
d="M78 762v477h610v-330q0 -8 -31 -20q-537 -117 -579 -127zM371 -559q-212 0 -322 77.5t-110 213.5q0 39 21.5 87t47.5 84.5t47.5 77.5t20.5 68q0 50 10.5 286.5t3.5 358.5h586q0 -428 22 -645q-143 -27 -209 -72t-71 -96q-1 -39 33 -60.5t92 -21.5q73 0 139 27v-318
q-156 -67 -311 -67z" />
    <glyph glyph-name="Idotaccent" unicode="&#x130;" horiz-adv-x="925" 
d="M182 1700q-14 0 -14 14v318q0 12 16 12h555q15 0 15 -16v-316q0 -12 -17 -12h-555zM88 49q-5 214 8 700.5t6 741.5h729q-12 -208 -13 -424.5t4.5 -353t16.5 -352.5t15 -312h-766z" />
    <glyph glyph-name="dotlessi" unicode="&#x131;" horiz-adv-x="776" 
d="M76 49q0 88 10.5 520.5t3.5 651.5h586q0 -787 22 -1172h-622z" />
    <glyph glyph-name="IJ" unicode="&#x132;" horiz-adv-x="1978" 
d="M119 637q334 -150 629 -150q168 0 276.5 64t108.5 166q0 125 -8.5 418t-14.5 356h752q-20 -101 -22 -251.5t7 -271.5t19 -235.5t10 -136.5q0 -111 -35.5 -203t-101 -157t-152 -113t-193.5 -76t-220 -41.5t-238 -13.5q-260 0 -438.5 20t-395.5 68zM109 762
q-4 98 9.5 346.5t4.5 382.5h723q-12 -101 -13 -210t4 -180.5t15.5 -181t13.5 -157.5h-757z" />
    <glyph glyph-name="ij" unicode="&#x133;" horiz-adv-x="1576" 
d="M82 762v477h610v-330q0 -9 -30 -20q-548 -120 -580 -127zM870 762v477h609v-330q0 -9 -29 -20q-482 -104 -580 -127zM80 49q0 50 10.5 286.5t3.5 358.5h586q0 -428 22 -645h-622zM864 -213q13 313 13 881l598 2q0 -506 4 -752z" />
    <glyph glyph-name="Jcircumflex" unicode="&#x134;" horiz-adv-x="1275" 
d="M784 1890l-133 -188h-401l227 364h631l229 -364h-419zM1159 1491q-19 -99 -14.5 -257t18 -288.5t27.5 -251.5t14 -145q0 -123 -37 -220t-99 -159.5t-149 -103t-180.5 -57t-199.5 -15.5q-303 0 -494 104l16 520q67 -51 141 -72t131.5 -3t74.5 75q33 17 42 135.5t-1 278.5
t-21 274t-20 185h751z" />
    <glyph glyph-name="jcircumflex" unicode="&#x135;" horiz-adv-x="786" 
d="M393 1622l-131 -186h-403l229 364h631l229 -364h-422zM692 1221q1 -147 -1 -407t-1.5 -482t6.5 -414l-616 -131q31 787 8 1430z" />
    <glyph glyph-name="uni0136" unicode="&#x136;" horiz-adv-x="2142" 
d="M98 49q0 183 26 682.5t15 759.5h727q0 -111 -13 -341t-13 -339q0 -36 24 -41q-24 -2 -24 -45q0 -415 26 -676h-768zM1233 49l-281 723q105 169 172.5 340t124.5 379h787l-328 -629q-11 -15 -16 -25.5t-1 -23.5t5 -16.5t15 -21.5t18 -23q258 -520 337 -703h-833zM786 -492
l50 361h471l-140 -361h-381z" />
    <glyph glyph-name="uni0137" unicode="&#x137;" horiz-adv-x="1832" 
d="M760 645q-22 -23 -22 -245t20 -351h-656q-1 172 3.5 480.5t5 481.5t-8.5 480h648q4 -142 -7.5 -414t-11.5 -389q0 -33 29 -43zM856 604q-2 8 -10.5 21t-14.5 14q33 7 43 37l240 545h631l-344 -535q-11 -13 -8.5 -23t18.5 -28l363 -586h-699q-22 57 -63 165.5t-79 204.5
t-77 185zM760 645q5 3 10 -2q-6 0 -10 2zM627 -483l49 360h471l-139 -360h-381z" />
    <glyph glyph-name="kgreenlandic" unicode="&#x138;" horiz-adv-x="1832" 
d="M731 672q0 -22 29 -27q-22 -25 -22 -247t20 -349h-656q-1 167 5 406t6.5 360.5t-11.5 405.5h648q1 -134 -9 -279.5t-10 -269.5zM1411 635l363 -586h-699q-22 57 -63 165.5t-79 204.5t-77 185q-2 8 -10.5 21t-14.5 14q33 7 43 37l240 545h631l-344 -535q-11 -13 -8.5 -23
t18.5 -28zM760 645q4 4 10 -2q-6 0 -10 2z" />
    <glyph glyph-name="Lacute" unicode="&#x139;" horiz-adv-x="1714" 
d="M346 2277l-121 -364h408l303 364h-590zM831 580q0 -54 68 -54h737v-477h-1552q1 135 14.5 340t25.5 365t10.5 363.5t-25.5 373.5h745q0 -147 -11.5 -455.5t-11.5 -455.5z" />
    <glyph glyph-name="lacute" unicode="&#x13a;" horiz-adv-x="772" 
d="M272 2066l-120 -364h407l303 364h-590zM80 49q0 155 6 467.5t7 486.5t-9 488h588q-6 -758 26 -1442h-618z" />
    <glyph glyph-name="uni013B" unicode="&#x13b;" horiz-adv-x="1714" 
d="M831 580q0 -54 68 -54h737v-477h-1552q1 135 14.5 340t25.5 365t10.5 363.5t-25.5 373.5h745q0 -147 -11.5 -455.5t-11.5 -455.5zM569 -492l49 361h472l-140 -361h-381z" />
    <glyph glyph-name="uni013C" unicode="&#x13c;" horiz-adv-x="772" 
d="M80 49q0 155 6 467.5t7 486.5t-9 488h588q-6 -758 26 -1442h-618zM109 -483l49 360h471l-140 -360h-380z" />
    <glyph glyph-name="Lcaron" unicode="&#x13d;" horiz-adv-x="1718" 
d="M1466 1098h-338l52 471h422zM831 580q0 -54 68 -54h737v-477h-1552q1 135 14.5 340t25.5 365t10.5 363.5t-25.5 373.5h745q0 -147 -11.5 -455.5t-11.5 -455.5z" />
    <glyph glyph-name="lcaron" unicode="&#x13e;" horiz-adv-x="1351" 
d="M80 49q0 155 6 467.5t7 486.5t-9 488h588q-6 -758 26 -1442h-618zM1157 1016h-338l49 471h424z" />
    <glyph glyph-name="Ldot" unicode="&#x13f;" horiz-adv-x="1718" 
d="M831 580q0 -54 68 -54h737v-477h-1552q1 135 14.5 340t25.5 365t10.5 363.5t-25.5 373.5h745q0 -147 -11.5 -455.5t-11.5 -455.5zM1034 819v371h492v-371h-492z" />
    <glyph glyph-name="ldot" unicode="&#x140;" horiz-adv-x="1423" 
d="M80 49q0 155 6 467.5t7 486.5t-9 488h588q-6 -758 26 -1442h-618zM838 602v371h493v-371h-493z" />
    <glyph glyph-name="Lslash" unicode="&#x141;" horiz-adv-x="1847" 
d="M1036 526h736v-477h-1551q0 120 21 443l-121 -52v328l143 59q21 385 -18 664h745q0 -117 -8 -367l287 119v-328l-297 -122q-4 -144 -4 -213q0 -54 67 -54z" />
    <glyph glyph-name="lslash" unicode="&#x142;" horiz-adv-x="1015" 
d="M924 1200v-321l-138 -68q6 -349 25 -762h-618q0 225 6 465l-131 -65v319l137 70q4 401 -8 653h587q-3 -179 0 -361z" />
    <glyph glyph-name="Nacute" unicode="&#x143;" horiz-adv-x="2146" 
d="M987 2066l-121 -364h406l305 364h-590zM1327 1491h721q3 -139 -13 -336t-31.5 -350t-9.5 -359.5t46 -396.5h-879l-252 707q-4 13 -25.5 16.5t-42 -12.5t-20.5 -51q0 -350 25 -660h-754q0 204 34.5 685.5t31.5 756.5h817l276 -827q4 -14 22.5 -19t36 5.5t17.5 35.5v805z
" />
    <glyph glyph-name="nacute" unicode="&#x144;" horiz-adv-x="1708" 
d="M756 1800l-121 -364h407l304 364h-590zM1004 49q2 39 8 136t9 154.5t6 145t3 162.5q0 49 -18.5 83t-45.5 47.5t-57 17.5t-54 -1t-36 -14l129 416q83 37 175 51.5t180 3t159 -47.5t114.5 -108t43.5 -171v-875h-616zM80 49q-4 144 2.5 384t8.5 391t-15 397h606
q0 -293 18 -494q-26 -209 0 -678h-620z" />
    <glyph glyph-name="uni0145" unicode="&#x145;" horiz-adv-x="2146" 
d="M1327 1491h721q3 -139 -13 -336t-31.5 -350t-9.5 -359.5t46 -396.5h-879l-252 707q-4 13 -25.5 16.5t-42 -12.5t-20.5 -51q0 -350 25 -660h-754q0 204 34.5 685.5t31.5 756.5h817l276 -827q4 -14 22.5 -19t36 5.5t17.5 35.5v805zM793 -492l49 361h471l-139 -361h-381z
" />
    <glyph glyph-name="uni0146" unicode="&#x146;" horiz-adv-x="1708" 
d="M1004 49q2 39 8 136t9 154.5t6 145t3 162.5q0 49 -18.5 83t-45.5 47.5t-57 17.5t-54 -1t-36 -14l129 416q83 37 175 51.5t180 3t159 -47.5t114.5 -108t43.5 -171v-875h-616zM80 49q-4 144 2.5 384t8.5 391t-15 397h606q0 -293 18 -494q-26 -209 0 -678h-620zM575 -483
l50 360h471l-140 -360h-381z" />
    <glyph glyph-name="Ncaron" unicode="&#x147;" horiz-adv-x="2146" 
d="M1389 1702h-631l-228 364h420l133 -186l131 186h404zM2048 1491q3 -139 -13 -336t-31.5 -350t-9.5 -359.5t46 -396.5h-879l-252 707q-4 13 -25.5 16.5t-42 -12.5t-20.5 -51q0 -350 25 -660h-754q0 204 34.5 685.5t31.5 756.5h817l276 -827q4 -14 22.5 -19t36 5.5
t17.5 35.5v805h721z" />
    <glyph glyph-name="ncaron" unicode="&#x148;" horiz-adv-x="1708" 
d="M1176 1415h-631l-230 365h420l133 -189l133 189h402zM948 1196q83 37 175 51.5t180 3t159 -47.5t114.5 -108t43.5 -171v-875h-616q2 39 8 136t9 154.5t6 145t3 162.5q0 49 -18.5 83t-45.5 47.5t-57 17.5t-54 -1t-36 -14zM682 1221q0 -293 18 -494q-26 -209 0 -678h-620
q-4 144 2.5 384t8.5 391t-15 397h606z" />
    <glyph glyph-name="napostrophe" unicode="&#x149;" horiz-adv-x="2525" 
d="M745 774l-649 127v485h649v-612zM1819 49q2 39 8 136t9 154.5t6 145t3 162.5q0 49 -18.5 83t-45.5 47.5t-57 17.5t-54 -1t-36 -14l129 416q69 30 145.5 45t151.5 14.5t142.5 -22t119.5 -60t82.5 -102.5t30.5 -147v-875h-616zM897 49q-5 146 1 383.5t8.5 391.5t-13.5 397
h606q-3 -277 19 -494q-29 -208 -2 -678h-619z" />
    <glyph glyph-name="Eng" unicode="&#x14a;" horiz-adv-x="2146" 
d="M1065 -502l-147 445q141 -12 199.5 24t53.5 123l-260 666q-4 13 -26 16.5t-43 -12.5t-21 -51q0 -350 25 -660h-754q0 204 34.5 685.5t31.5 756.5h817l282 -827q3 -11 20 -16t33.5 4t16.5 34v805h721q5 -244 -25 -707t-30 -641q0 -113 -27 -207t-75 -162t-114.5 -121.5
t-147.5 -84.5t-173 -51t-190.5 -22t-200.5 3z" />
    <glyph glyph-name="eng" unicode="&#x14b;" horiz-adv-x="1708" 
d="M915 -453l-147 406q78 -4 130.5 12.5t80.5 55t39 86.5t12 118v402q0 49 -18.5 83.5t-45.5 49t-57 19.5t-54 0.5t-36 -13.5l129 416q83 36 175 51t180 3.5t159 -47.5t114.5 -107t43.5 -169v-757q0 -73 -5.5 -131.5t-23 -127t-48 -119.5t-84 -100t-126 -78.5t-179 -44.5
t-239.5 -8zM80 49q-4 144 2.5 384t8.5 391t-15 397h606q0 -293 18 -494q-26 -209 0 -678h-620z" />
    <glyph glyph-name="Omacron" unicode="&#x14c;" horiz-adv-x="2293" 
d="M664 1735v260h950v-260h-950zM1135 1548q-227 0 -399.5 -33t-287.5 -93t-187 -152.5t-103 -204t-31 -254.5q0 -83 5.5 -151t20.5 -139.5t40.5 -129t66 -113.5t95.5 -98t131 -78.5t171 -60t217 -36.5t267 -13q196 0 357 27t275.5 77t198.5 116.5t133.5 151t73 174
t23.5 191.5q0 178 -69 327t-200.5 259t-335.5 171.5t-462 61.5zM1135 1024q156 0 239.5 -62.5t83.5 -168.5q0 -48 -16.5 -94t-50.5 -88.5t-95 -68.5t-141 -26q-152 0 -232.5 82.5t-80.5 210.5q0 50 13 87t44.5 67t90.5 45.5t145 15.5z" />
    <glyph glyph-name="omacron" unicode="&#x14d;" horiz-adv-x="1884" 
d="M463 1468v261h950v-261h-950zM938 -20q-116 0 -227.5 19.5t-211.5 56t-182.5 93.5t-140.5 127.5t-86 161.5t-18 193q38 318 265.5 484.5t600.5 166.5q149 0 283.5 -27t245 -82t189 -132t117.5 -182t29 -228q-26 -308 -257.5 -479.5t-606.5 -171.5zM948 414
q140 0 212.5 60.5t72.5 150.5q0 43 -15 80.5t-47.5 70t-92 51.5t-140.5 19q-274 0 -274 -199q0 -92 74.5 -162.5t209.5 -70.5z" />
    <glyph glyph-name="Obreve" unicode="&#x14e;" horiz-adv-x="2293" 
d="M598 2023h367q4 -51 52 -75.5t120 -24.5q156 0 172 100h364q0 -162 -136 -246.5t-400 -84.5q-264 -1 -401.5 83.5t-137.5 247.5zM1135 1548q-227 0 -399.5 -33t-287.5 -93t-187 -152.5t-103 -204t-31 -254.5q0 -83 5.5 -151t20.5 -139.5t40.5 -129t66 -113.5t95.5 -98
t131 -78.5t171 -60t217 -36.5t267 -13q196 0 357 27t275.5 77t198.5 116.5t133.5 151t73 174t23.5 191.5q0 178 -69 327t-200.5 259t-335.5 171.5t-462 61.5zM1135 1024q156 0 239.5 -62.5t83.5 -168.5q0 -48 -16.5 -94t-50.5 -88.5t-95 -68.5t-141 -26q-152 0 -232.5 82.5
t-80.5 210.5q0 50 13 87t44.5 67t90.5 45.5t145 15.5z" />
    <glyph glyph-name="obreve" unicode="&#x14f;" horiz-adv-x="1884" 
d="M399 1749h367q4 -51 52 -74.5t120 -23.5q156 0 172 98h365q0 -161 -136.5 -246.5t-400.5 -85.5t-401.5 84.5t-137.5 247.5zM938 -20q-116 0 -227.5 19.5t-211.5 56t-182.5 93.5t-140.5 127.5t-86 161.5t-18 193q38 318 265.5 484.5t600.5 166.5q149 0 283.5 -27t245 -82
t189 -132t117.5 -182t29 -228q-26 -308 -257.5 -479.5t-606.5 -171.5zM948 414q140 0 212.5 60.5t72.5 150.5q0 43 -15 80.5t-47.5 70t-92 51.5t-140.5 19q-274 0 -274 -199q0 -92 74.5 -162.5t209.5 -70.5z" />
    <glyph glyph-name="Ohungarumlaut" unicode="&#x150;" horiz-adv-x="2293" 
d="M823 2066l-114 -364h385l262 364h-533zM1430 2062l-117 -360h385l264 360h-532zM1135 1548q-227 0 -399.5 -33t-287.5 -93t-187 -152.5t-103 -204t-31 -254.5q0 -83 5.5 -151t20.5 -139.5t40.5 -129t66 -113.5t95.5 -98t131 -78.5t171 -60t217 -36.5t267 -13
q196 0 357 27t275.5 77t198.5 116.5t133.5 151t73 174t23.5 191.5q0 178 -69 327t-200.5 259t-335.5 171.5t-462 61.5zM1135 1024q156 0 239.5 -62.5t83.5 -168.5q0 -48 -16.5 -94t-50.5 -88.5t-95 -68.5t-141 -26q-152 0 -232.5 82.5t-80.5 210.5q0 50 13 87t44.5 67
t90.5 45.5t145 15.5z" />
    <glyph glyph-name="ohungarumlaut" unicode="&#x151;" horiz-adv-x="1884" 
d="M612 1800l-114 -364h387l262 364h-535zM1219 1796l-115 -360h385l264 360h-534zM938 -20q-116 0 -227.5 19.5t-211.5 56t-182.5 93.5t-140.5 127.5t-86 161.5t-18 193q38 318 265.5 484.5t600.5 166.5q149 0 283.5 -27t245 -82t189 -132t117.5 -182t29 -228
q-26 -308 -257.5 -479.5t-606.5 -171.5zM948 414q140 0 212.5 60.5t72.5 150.5q0 43 -15 80.5t-47.5 70t-92 51.5t-140.5 19q-274 0 -274 -199q0 -92 74.5 -162.5t209.5 -70.5z" />
    <glyph glyph-name="OE" unicode="&#x152;" horiz-adv-x="3035" 
d="M1143 6q-177 0 -319 19t-247.5 53.5t-183.5 88.5t-128.5 118t-81.5 149t-43.5 174.5t-12.5 200.5q0 130 31.5 236.5t106.5 199t192.5 155t296.5 98.5t411 36q233 0 465 -43h1290v-414h-720q-70 -3 -70 -71v-84q0 -43 45 -43h760v-246h-760q-45 0 -45 -39v-90q0 -11 3 -22
t12 -25t29.5 -22.5t49.5 -8.5h748v-377h-1170q-157 19 -203 19q-19 -4 -95 -19.5t-114 -22t-108.5 -13.5t-138.5 -7zM1157 524q51 0 95 16.5t74.5 44t50.5 55t34 58.5v185q-24 71 -83 102t-161 31q-156 0 -239.5 -57t-83.5 -152q0 -123 80.5 -203t232.5 -80z" />
    <glyph glyph-name="oe" unicode="&#x153;" horiz-adv-x="2928" 
d="M938 -12q-140 0 -271.5 27t-244.5 82t-195.5 131t-124 181t-30.5 226q38 316 265.5 481.5t600.5 165.5q152 0 311.5 -44.5t239.5 -102.5q71 59 228.5 103t310.5 44q393 0 616.5 -175.5t224.5 -492.5h-1050q-15 0 -24.5 -3.5t-13 -10.5t-4.5 -11t-1 -11q1 -69 79 -115.5
t183 -46.5t176 36t86 93l500 -166q-34 -105 -148 -195t-278.5 -143t-339.5 -53q-155 0 -307.5 49.5t-243.5 118.5q-87 -71 -238.5 -119.5t-306.5 -48.5zM1821 662h454q5 0 11 10.5t6 21.5q-2 63 -74.5 113.5t-198.5 50.5q-110 0 -182.5 -41.5t-71.5 -114.5q1 -17 14.5 -26.5
t23.5 -11.5t18 -2zM944 420q121 0 199.5 67t75.5 166q-3 84 -76 140.5t-205 56.5q-137 0 -206.5 -52.5t-69.5 -144.5q0 -99 81.5 -166t200.5 -67z" />
    <glyph glyph-name="Racute" unicode="&#x154;" horiz-adv-x="2111" 
d="M1647 2066l-306 -364h-405l121 364h590zM1786 567l274 -518h-934q-62 193 -116 327.5t-127 250.5h264q78 0 132 54t54 132q0 79 -57.5 132.5t-145.5 53.5h-270q-35 0 -55.5 -21.5t-20.5 -51.5q0 -118 7.5 -186.5t20.5 -93t34 -21.5q-17 -5 -32 -100t-19.5 -221.5
t6.5 -254.5h-705q-3 168 6.5 465t13.5 491.5t-12 485.5h1375q121 0 219.5 -35.5t159.5 -94.5t94 -133t33 -155q0 -87 -36.5 -167.5t-104.5 -145.5t-177.5 -103.5t-243.5 -38.5h-147q-5 0 -9.5 -4t-4.5 -10q0 -19 15 -28t36 -9h473zM846 625h2h-2z" />
    <glyph glyph-name="racute" unicode="&#x155;" horiz-adv-x="1454" 
d="M618 1800l-120 -364h407l303 364h-590zM811 557l90 447q19 90 85.5 152.5t146 84.5t157 19t123.5 -31l-137 -664q-61 48 -164 61t-190 -7.5t-111 -61.5zM713 1221q0 -129 -11.5 -369t-11 -434.5t24.5 -368.5h-631q0 130 2.5 369t2.5 434t-5 369h629z" />
    <glyph glyph-name="uni0156" unicode="&#x156;" horiz-adv-x="2111" 
d="M860 999q-35 0 -55.5 -21.5t-20.5 -51.5q0 -118 7.5 -186.5t20.5 -93t34 -21.5q-17 -5 -32 -100t-19.5 -221.5t6.5 -254.5h-705q-3 168 6.5 465t13.5 491.5t-12 485.5h1375q121 0 219.5 -35.5t159.5 -94.5t94 -133t33 -155q0 -87 -36.5 -167.5t-104.5 -145.5
t-177.5 -103.5t-243.5 -38.5h-147q-5 0 -9.5 -4t-4.5 -10q0 -19 15 -28t36 -9h473l274 -518h-934q-62 193 -116 327.5t-127 250.5h264q78 0 132 54t54 132q0 79 -57.5 132.5t-145.5 53.5h-270zM846 625h2h-2zM864 -492l49 361h471l-139 -361h-381z" />
    <glyph glyph-name="uni0157" unicode="&#x157;" horiz-adv-x="1454" 
d="M811 557l90 447q19 90 85.5 152.5t146 84.5t157 19t123.5 -31l-137 -664q-61 48 -164 61t-190 -7.5t-111 -61.5zM713 1221q0 -129 -11.5 -369t-11 -434.5t24.5 -368.5h-631q0 130 2.5 369t2.5 434t-5 369h629zM121 -483l49 360h471l-139 -360h-381z" />
    <glyph glyph-name="Rcaron" unicode="&#x158;" horiz-adv-x="2111" 
d="M1460 1702h-631l-227 364h420l133 -186l131 186h404zM1786 567l274 -518h-934q-62 193 -116 327.5t-127 250.5h264q78 0 132 54t54 132q0 79 -57.5 132.5t-145.5 53.5h-270q-35 0 -55.5 -21.5t-20.5 -51.5q0 -118 7.5 -186.5t20.5 -93t34 -21.5q-17 -5 -32 -100
t-19.5 -221.5t6.5 -254.5h-705q-3 168 6.5 465t13.5 491.5t-12 485.5h1375q121 0 219.5 -35.5t159.5 -94.5t94 -133t33 -155q0 -87 -36.5 -167.5t-104.5 -145.5t-177.5 -103.5t-243.5 -38.5h-147q-5 0 -9.5 -4t-4.5 -10q0 -19 15 -28t36 -9h473zM846 625h2h-2z" />
    <glyph glyph-name="rcaron" unicode="&#x159;" horiz-adv-x="1454" 
d="M1040 1415h-630l-230 365h420l133 -189l133 189h402zM901 1004q19 90 85.5 152.5t146 84.5t157 19t123.5 -31l-137 -664q-61 48 -164 61t-190 -7.5t-111 -61.5zM713 1221q0 -129 -11.5 -369t-11 -434.5t24.5 -368.5h-631q0 130 2.5 369t2.5 434t-5 369h629z" />
    <glyph glyph-name="Sacute" unicode="&#x15a;" horiz-adv-x="2170" 
d="M975 2066l-121 -364h406l305 364h-590zM1155 885q359 0 568.5 -42.5t300 -130.5t90.5 -237q0 -118 -80 -212t-219 -153.5t-319 -90.5t-386 -31q-184 0 -339.5 19t-285.5 60.5t-220 103.5t-138.5 151t-44.5 200l776 58q-12 -80 60 -132.5t186 -52.5q110 0 178 47.5
t68 104.5q0 33 -18.5 54.5t-54.5 32.5t-77 15t-98 4h-150q-201 -6 -360.5 16t-257.5 62t-160 95t-83.5 111.5t-12.5 115.5q89 237 348.5 370t638.5 138q300 5 528 -65.5t344.5 -199t102.5 -292.5l-748 -54q26 85 -29 137t-165 52q-105 0 -187 -45t-82 -113q0 -43 41.5 -69.5
t126.5 -26.5h158z" />
    <glyph glyph-name="sacute" unicode="&#x15b;" horiz-adv-x="1562" 
d="M674 1800l-121 -364h408l303 364h-590zM68 893q0 95 65 172t170.5 123.5t243 72t279 25t281.5 -25.5t249 -72v-361q-58 49 -184 77t-250 28q-106 0 -172 -26.5t-66 -80.5q0 -37 32 -50t89 -13q27 0 89.5 1t96.5 1q77 0 145.5 -9.5t137.5 -34t119 -63.5t81 -103t31 -146
q0 -104 -67 -186.5t-176 -131.5t-249.5 -74.5t-283.5 -21.5t-282.5 34.5t-243.5 86.5v397q59 -61 190.5 -94t263.5 -33q111 3 175.5 33t64.5 80q0 28 -25.5 44.5t-70.5 16.5h-142q-60 0 -111.5 3t-113.5 11.5t-112 23t-99 40.5t-82 60t-53 84t-20 112z" />
    <glyph glyph-name="Scircumflex" unicode="&#x15c;" horiz-adv-x="2170" 
d="M1053 1890l-131 -188h-404l230 364h630l228 -364h-420zM1155 885q359 0 568.5 -42.5t300 -130.5t90.5 -237q0 -118 -80 -212t-219 -153.5t-319 -90.5t-386 -31q-184 0 -339.5 19t-285.5 60.5t-220 103.5t-138.5 151t-44.5 200l776 58q-12 -80 60 -132.5t186 -52.5
q110 0 178 47.5t68 104.5q0 33 -18.5 54.5t-54.5 32.5t-77 15t-98 4h-150q-201 -6 -360.5 16t-257.5 62t-160 95t-83.5 111.5t-12.5 115.5q89 237 348.5 370t638.5 138q300 5 528 -65.5t344.5 -199t102.5 -292.5l-748 -54q26 85 -29 137t-165 52q-105 0 -187 -45t-82 -113
q0 -43 41.5 -69.5t126.5 -26.5h158z" />
    <glyph glyph-name="scircumflex" unicode="&#x15d;" horiz-adv-x="1562" 
d="M756 1624l-131 -188h-404l230 364h630l228 -364h-420zM991 764q77 0 145.5 -9.5t137.5 -34t119 -63.5t81 -103t31 -146q0 -104 -67 -186.5t-176 -131.5t-249.5 -74.5t-283.5 -21.5t-282.5 34.5t-243.5 86.5v397q59 -61 190.5 -94t263.5 -33q111 3 175.5 33t64.5 80
q0 28 -25.5 44.5t-70.5 16.5h-142q-60 0 -111.5 3t-113.5 11.5t-112 23t-99 40.5t-82 60t-53 84t-20 112q0 95 65 172t170.5 123.5t243 72t279 25t281.5 -25.5t249 -72v-361q-58 49 -184 77t-250 28q-106 0 -172 -26.5t-66 -80.5q0 -37 32 -50t89 -13q27 0 89.5 1t96.5 1z
" />
    <glyph glyph-name="Scedilla" unicode="&#x15e;" horiz-adv-x="2170" 
d="M2114 475q0 -113 -73 -204t-201 -150.5t-295 -93.5t-361 -39q-5 -21 2 -47q129 2 209 -48t80 -139q0 -104 -105 -177t-272 -73q-159 0 -291 62l70 201q44 -23 84.5 -34t69.5 -10t50.5 10t32 24t10.5 34q0 31 -35 50t-106 9q-10 72 -2 140q-163 7 -300 30.5t-250.5 66.5
t-191.5 103t-119.5 144.5t-37.5 187.5l776 58q-12 -80 60 -132.5t186 -52.5q110 0 178 47.5t68 104.5q0 33 -18.5 54.5t-54.5 32.5t-77 15t-98 4h-150q-201 -6 -360.5 16t-257.5 62t-160 95t-83.5 111.5t-12.5 115.5q89 237 348.5 370t638.5 138q300 5 528 -65.5t344.5 -199
t102.5 -292.5l-748 -54q26 85 -29 137t-165 52q-105 0 -187 -45t-82 -113q0 -43 41.5 -69.5t126.5 -26.5h158q359 0 568.5 -42.5t300 -130.5t90.5 -237z" />
    <glyph glyph-name="scedilla" unicode="&#x15f;" horiz-adv-x="1562" 
d="M1505 408q0 -118 -86.5 -208t-221.5 -138t-304 -62q-10 -46 -2 -70q129 2 210 -47.5t81 -138.5q0 -104 -105.5 -177t-273.5 -73q-161 0 -289 62l68 200q45 -23 85.5 -34t69.5 -9.5t51 10.5t32.5 24t10.5 34q0 31 -35.5 50t-107.5 9q-10 80 0 156q-286 13 -485 119v397
q59 -61 190.5 -94t263.5 -33q111 3 175.5 33t64.5 80q0 28 -25.5 44.5t-70.5 16.5h-142q-60 0 -111.5 3t-113.5 11.5t-112 23t-99 40.5t-82 60t-53 84t-20 112q0 95 65 172t170.5 123.5t243 72t279 25t281.5 -25.5t249 -72v-361q-58 49 -184 77t-250 28q-106 0 -172 -26.5
t-66 -80.5q0 -37 32 -50t89 -13q27 0 89.5 1t96.5 1q77 0 145.5 -9.5t137.5 -34t119 -63.5t81 -103t31 -146z" />
    <glyph glyph-name="Scaron" unicode="&#x160;" horiz-adv-x="2170" 
d="M1378 1702h-630l-228 364h420l133 -186l131 186h404zM1155 885q359 0 568.5 -42.5t300 -130.5t90.5 -237q0 -118 -80 -212t-219 -153.5t-319 -90.5t-386 -31q-184 0 -339.5 19t-285.5 60.5t-220 103.5t-138.5 151t-44.5 200l776 58q-12 -80 60 -132.5t186 -52.5
q110 0 178 47.5t68 104.5q0 33 -18.5 54.5t-54.5 32.5t-77 15t-98 4h-150q-201 -6 -360.5 16t-257.5 62t-160 95t-83.5 111.5t-12.5 115.5q89 237 348.5 370t638.5 138q300 5 528 -65.5t344.5 -199t102.5 -292.5l-748 -54q26 85 -29 137t-165 52q-105 0 -187 -45t-82 -113
q0 -43 41.5 -69.5t126.5 -26.5h158z" />
    <glyph glyph-name="scaron" unicode="&#x161;" horiz-adv-x="1562" 
d="M1094 1415h-631l-230 365h420l133 -189l134 189h401zM991 764q77 0 145.5 -9.5t137.5 -34t119 -63.5t81 -103t31 -146q0 -104 -67 -186.5t-176 -131.5t-249.5 -74.5t-283.5 -21.5t-282.5 34.5t-243.5 86.5v397q59 -61 190.5 -94t263.5 -33q111 3 175.5 33t64.5 80
q0 28 -25.5 44.5t-70.5 16.5h-142q-60 0 -111.5 3t-113.5 11.5t-112 23t-99 40.5t-82 60t-53 84t-20 112q0 95 65 172t170.5 123.5t243 72t279 25t281.5 -25.5t249 -72v-361q-58 49 -184 77t-250 28q-106 0 -172 -26.5t-66 -80.5q0 -37 32 -50t89 -13q27 0 89.5 1t96.5 1z
" />
    <glyph glyph-name="uni0162" unicode="&#x162;" horiz-adv-x="1880" 
d="M78 1491h1734v-494h-448q-45 0 -61.5 -18.5t-16.5 -50.5q0 -129 11 -434t8 -445h-240q-23 -66 -10 -100q129 2 208.5 -48t79.5 -139q0 -104 -104.5 -176.5t-271.5 -72.5q-162 0 -291 61l69 201q44 -23 84.5 -34t69.5 -10t50.5 10t32.5 24t11 34q0 31 -35 50.5t-106 9.5
q-13 90 8 190h-315q49 414 49 830q0 34 -3.5 57t-19 42t-43.5 19h-450v494z" />
    <glyph glyph-name="uni0163" unicode="&#x163;" horiz-adv-x="1323" 
d="M930 471q77 0 148.5 35t99.5 96v-508q-71 -54 -184.5 -84.5t-231.5 -32.5q-3 -24 2 -40q130 2 210.5 -48t80.5 -139q0 -106 -105 -178t-274 -72q-165 0 -289 62l68 198q45 -22 85.5 -32.5t70 -9t51 10.5t32.5 24t11 34q0 30 -35.5 49t-106.5 8q-12 70 0 154
q-100 23 -186.5 68t-153 110.5t-105 155t-38.5 192.5v711l614 143q-12 -305 8 -628q-9 -43 3 -91.5t40 -90.5t77 -69.5t108 -27.5zM936 1237h324v-481h-476q98 239 152 481z" />
    <glyph glyph-name="Tcaron" unicode="&#x164;" horiz-adv-x="1880" 
d="M1255 1702h-630l-228 364h420l133 -186l131 186h404zM78 1491h1734v-494h-448q-45 0 -61.5 -18.5t-16.5 -50.5q0 -129 11 -434t8 -445h-760q49 414 49 830q0 34 -3.5 57t-19 42t-43.5 19h-450v494z" />
    <glyph glyph-name="tcaron" unicode="&#x165;" horiz-adv-x="1320" 
d="M1174 1350h-336l49 393h422zM80 524v711l614 143q-12 -305 8 -628q-9 -43 3 -91.5t40 -90.5t77 -69.5t108 -27.5q77 0 148.5 35t99.5 96v-508q-73 -55 -189 -86t-235 -31q-128 0 -248 37.5t-215.5 105t-153 173t-57.5 231.5zM784 756q98 239 152 481h324v-481h-476z" />
    <glyph glyph-name="Tbar" unicode="&#x166;" horiz-adv-x="1884" 
d="M1364 997q-45 0 -61.5 -18.5t-16.5 -50.5q0 -74 4 -230h244v-274h-234q7 -243 5 -375h-760q25 219 35 375h-232v274h244q2 59 2 181q0 34 -3.5 57t-19 42t-43.5 19h-450v494h1734v-494h-448z" />
    <glyph glyph-name="tbar" unicode="&#x167;" horiz-adv-x="1435" 
d="M795 1378q-11 -253 4 -604h516v-137h-506q18 -60 73.5 -105t124 -62t143.5 1t128 74l2 -408q-111 -69 -238.5 -102t-248 -29t-233 44t-196.5 109t-134 174.5t-50 233.5v70h-121v137h121v461zM1032 1237h328v-371h-477q95 177 149 371z" />
    <glyph glyph-name="Utilde" unicode="&#x168;" horiz-adv-x="2070" 
d="M502 1686h272q-13 52 6 76t58 24q25 0 64.5 -17.5t77.5 -38t94 -38t110 -17.5q71 0 133.5 22t113 67.5t73 127t7.5 187.5h-268q9 -53 -9.5 -79t-55.5 -26q-24 0 -62 18t-75 39.5t-93 39.5t-112 18q-78 0 -143 -23.5t-114.5 -70t-70.5 -126t-6 -183.5zM117 1491
q0 -84 6.5 -213.5t12.5 -231.5t5.5 -229t-12.5 -229q-12 -99 17 -185.5t91.5 -151.5t150 -116.5t194 -84t222 -49.5t234.5 -17q180 0 343 39t295.5 113.5t210.5 197t77 276.5q-4 543 8 881h-745q3 -132 28.5 -402.5t26.5 -418.5q1 -76 -53.5 -117t-136.5 -41
q-73 0 -133.5 23.5t-103 81t-42.5 141.5q0 303 10 733h-706z" />
    <glyph glyph-name="utilde" unicode="&#x169;" horiz-adv-x="1710" 
d="M352 1432h273q-13 52 5.5 76t57.5 24q25 0 64.5 -17.5t77.5 -38t94 -38t110 -17.5q71 0 133.5 22.5t113.5 68.5t73.5 127.5t7.5 187.5h-268q8 -54 -10.5 -79.5t-55.5 -25.5q-28 0 -80 28t-121.5 56.5t-140.5 28.5q-78 0 -143 -23t-114.5 -69.5t-70.5 -126.5t-6 -184z
M709 1221q-35 -440 -35 -621q0 -56 18.5 -92.5t47 -50t62.5 -14t65 9t55 24.5l-131 -401q-51 -24 -116 -40.5t-136.5 -21t-142 3t-132.5 33.5t-108 67t-68.5 107.5t-13.5 151.5q19 108 25 234.5t4.5 195t-11 225.5t-10.5 189h627zM1618 1221q0 -77 -1 -281.5t-1 -322
t4.5 -282.5t13.5 -286h-628q2 50 7.5 159t9 200t3.5 163q0 357 -14 650h606z" />
    <glyph glyph-name="Umacron" unicode="&#x16a;" horiz-adv-x="2070" 
d="M551 1735v260h950v-260h-950zM117 1491q0 -84 6.5 -213.5t12.5 -231.5t5.5 -229t-12.5 -229q-12 -99 17 -185.5t91.5 -151.5t150 -116.5t194 -84t222 -49.5t234.5 -17q180 0 343 39t295.5 113.5t210.5 197t77 276.5q-4 543 8 881h-745q3 -132 28.5 -402.5t26.5 -418.5
q1 -76 -53.5 -117t-136.5 -41q-73 0 -133.5 23.5t-103 81t-42.5 141.5q0 303 10 733h-706z" />
    <glyph glyph-name="umacron" unicode="&#x16b;" horiz-adv-x="1710" 
d="M379 1468v261h950v-261h-950zM709 1221q-35 -440 -35 -621q0 -56 18.5 -92.5t47 -50t62.5 -14t65 9t55 24.5l-131 -401q-51 -24 -116 -40.5t-136.5 -21t-142 3t-132.5 33.5t-108 67t-68.5 107.5t-13.5 151.5q19 108 25 234.5t4.5 195t-11 225.5t-10.5 189h627zM1618 1221
q0 -77 -1 -281.5t-1 -322t4.5 -282.5t13.5 -286h-628q2 50 7.5 159t9 200t3.5 163q0 357 -14 650h606z" />
    <glyph glyph-name="Ubreve" unicode="&#x16c;" horiz-adv-x="2070" 
d="M485 2023h367q4 -51 52 -75.5t120 -24.5q156 0 172 100h365q0 -162 -136 -246.5t-401 -84.5q-264 -1 -401.5 83.5t-137.5 247.5zM117 1491q0 -84 6.5 -213.5t12.5 -231.5t5.5 -229t-12.5 -229q-12 -99 17 -185.5t91.5 -151.5t150 -116.5t194 -84t222 -49.5t234.5 -17
q180 0 343 39t295.5 113.5t210.5 197t77 276.5q-4 543 8 881h-745q3 -132 28.5 -402.5t26.5 -418.5q1 -76 -53.5 -117t-136.5 -41q-73 0 -133.5 23.5t-103 81t-42.5 141.5q0 303 10 733h-706z" />
    <glyph glyph-name="ubreve" unicode="&#x16d;" horiz-adv-x="1710" 
d="M313 1749h367q4 -51 52 -74.5t120 -23.5q156 0 172 98h365q0 -161 -136.5 -246.5t-400.5 -85.5t-401.5 84.5t-137.5 247.5zM709 1221q-35 -440 -35 -621q0 -56 18.5 -92.5t47 -50t62.5 -14t65 9t55 24.5l-131 -401q-51 -24 -116 -40.5t-136.5 -21t-142 3t-132.5 33.5
t-108 67t-68.5 107.5t-13.5 151.5q19 108 25 234.5t4.5 195t-11 225.5t-10.5 189h627zM1618 1221q0 -77 -1 -281.5t-1 -322t4.5 -282.5t13.5 -286h-628q2 50 7.5 159t9 200t3.5 163q0 357 -14 650h606z" />
    <glyph glyph-name="Uring" unicode="&#x16e;" horiz-adv-x="2070" 
d="M698 1913q15 117 101 181.5t227 64.5q151 0 246 -65t84 -181q-10 -119 -98 -183.5t-232 -64.5q-150 0 -247 66.5t-81 181.5zM1153 1913q0 51 -36 78.5t-91 27.5q-53 0 -88 -27.5t-35 -78.5q0 -52 35 -80.5t88 -28.5q55 0 91 28.5t36 80.5zM117 1491q0 -84 6.5 -213.5
t12.5 -231.5t5.5 -229t-12.5 -229q-12 -99 17 -185.5t91.5 -151.5t150 -116.5t194 -84t222 -49.5t234.5 -17q180 0 343 39t295.5 113.5t210.5 197t77 276.5q-4 543 8 881h-745q3 -132 28.5 -402.5t26.5 -418.5q1 -76 -53.5 -117t-136.5 -41q-73 0 -133.5 23.5t-103 81
t-42.5 141.5q0 303 10 733h-706z" />
    <glyph glyph-name="uring" unicode="&#x16f;" horiz-adv-x="1710" 
d="M532 1665q-1 113 84 173t220 60h45q136 -2 220.5 -65.5t84.5 -171.5q0 -116 -90.5 -180t-235.5 -64q-142 0 -233 64t-95 184zM967 1669q0 33 -24.5 56t-65.5 26h-37q-43 0 -70 -21t-27 -57q0 -42 34 -64t79 -22q44 0 77.5 21.5t33.5 60.5zM709 1221q-35 -440 -35 -621
q0 -56 18.5 -92.5t47 -50t62.5 -14t65 9t55 24.5l-131 -401q-51 -24 -116 -40.5t-136.5 -21t-142 3t-132.5 33.5t-108 67t-68.5 107.5t-13.5 151.5q19 108 25 234.5t4.5 195t-11 225.5t-10.5 189h627zM1618 1221q0 -77 -1 -281.5t-1 -322t4.5 -282.5t13.5 -286h-628
q2 50 7.5 159t9 200t3.5 163q0 357 -14 650h606z" />
    <glyph glyph-name="Uhungarumlaut" unicode="&#x170;" horiz-adv-x="2070" 
d="M711 2066l-115 -364h385l262 364h-532zM1317 2062l-117 -360h385l264 360h-532zM117 1491q0 -84 6.5 -213.5t12.5 -231.5t5.5 -229t-12.5 -229q-12 -99 17 -185.5t91.5 -151.5t150 -116.5t194 -84t222 -49.5t234.5 -17q180 0 343 39t295.5 113.5t210.5 197t77 276.5
q-4 543 8 881h-745q3 -132 28.5 -402.5t26.5 -418.5q1 -76 -53.5 -117t-136.5 -41q-73 0 -133.5 23.5t-103 81t-42.5 141.5q0 303 10 733h-706z" />
    <glyph glyph-name="uhungarumlaut" unicode="&#x171;" horiz-adv-x="1710" 
d="M528 1800l-114 -364h387l262 364h-535zM1135 1796l-115 -360h385l264 360h-534zM709 1221q-35 -440 -35 -621q0 -56 18.5 -92.5t47 -50t62.5 -14t65 9t55 24.5l-131 -401q-51 -24 -116 -40.5t-136.5 -21t-142 3t-132.5 33.5t-108 67t-68.5 107.5t-13.5 151.5
q19 108 25 234.5t4.5 195t-11 225.5t-10.5 189h627zM1618 1221q0 -77 -1 -281.5t-1 -322t4.5 -282.5t13.5 -286h-628q2 50 7.5 159t9 200t3.5 163q0 357 -14 650h606z" />
    <glyph glyph-name="Uogonek" unicode="&#x172;" horiz-adv-x="2080" 
d="M1268 -543q-210 0 -320 78t-110 213q0 33 19 72t38 64.5t28.5 57.5t-10.5 50q-128 10 -247 39t-224 79.5t-180 117.5t-112 160t-23 200q54 429 -10 903h717q-11 -473 -11 -729q0 -63 24 -112.5t64.5 -78t89 -43t101.5 -14.5q82 0 136.5 41t53.5 117q-1 148 -26.5 417.5
t-28.5 401.5h745q-12 -338 -8 -881q3 -186 -102.5 -318t-284.5 -206q-133 -56 -194 -100t-64 -92q-3 -38 26.5 -58t84.5 -20q75 0 141 26v-317q-158 -68 -313 -68z" />
    <glyph glyph-name="uogonek" unicode="&#x173;" horiz-adv-x="1710" 
d="M791 76q-51 -24 -116 -40.5t-136.5 -21t-142 3t-132.5 33.5t-108 67t-68.5 107.5t-13.5 151.5q19 108 25 234.5t4.5 195t-11 225.5t-10.5 189h627q-35 -440 -35 -621q0 -56 18.5 -92.5t47 -50t62.5 -14t65 9t55 24.5zM1292 -559q-210 0 -320 78t-110 213q0 51 32 111.5
t69 117t43 88.5q2 50 7.5 159t9 200t3.5 163q0 357 -14 650h606q0 -77 -1 -281.5t-1 -322t4.5 -282.5t13.5 -286q-286 -50 -293 -168q-3 -39 31.5 -60.5t91.5 -21.5q64 0 125 27v-318q-150 -67 -297 -67z" />
    <glyph glyph-name="Wcircumflex" unicode="&#x174;" horiz-adv-x="2895" 
d="M1444 1890l-133 -188h-402l228 364h630l230 -364h-420zM2058 1491h742q-38 -179 -159 -668t-173 -774h-873l-125 766q-3 22 -24.5 32t-43.5 1t-26 -33l-127 -766h-778q-38 217 -101 471t-138.5 534t-112.5 437h733q21 -362 117 -825q13 -21 35 -26t38.5 1.5t18.5 15.5
l123 834h551l125 -829q2 -15 35 -22.5t64.5 11.5t29.5 68q40 362 69 772z" />
    <glyph glyph-name="wcircumflex" unicode="&#x175;" horiz-adv-x="2471" 
d="M1235 1622l-131 -186h-404l230 364h631l229 -364h-420zM1839 1223h569q-41 -187 -138.5 -579t-141.5 -595h-739l-103 533q-7 41 -28.5 57.5t-42.5 3.5t-27 -45l-105 -549h-745q-23 103 -64.5 293.5t-68 309.5t-65 279.5t-74.5 291.5h641q50 -499 73 -688q0 -64 43 -78
q32 -11 54 13q10 9 12 22l121 731h530l102 -736q4 -28 33 -39.5t57 2.5t29 48q11 101 37 349.5t41 375.5z" />
    <glyph glyph-name="Ycircumflex" unicode="&#x176;" horiz-adv-x="2234" 
d="M1120 1890l-133 -188h-401l227 364h631l229 -364h-420zM1335 1491h799q-85 -170 -178.5 -344t-236.5 -430t-191 -344q-15 -29 -15 -76v-248h-759v275q0 22 -13 59q-126 235 -347.5 617t-282.5 491h854q13 -59 36.5 -184.5t45.5 -224.5t47 -187q12 -33 45 -38.5t57 24.5
q110 311 139 610z" />
    <glyph glyph-name="ycircumflex" unicode="&#x177;" horiz-adv-x="1847" 
d="M926 1622l-131 -186h-404l230 364h630l230 -364h-420zM1090 1235h702q-276 -754 -465 -1430h-569q14 18 27.5 36.5t25.5 39t20 34.5t19 36.5t15.5 31.5t15 32.5t12.5 27.5l-10 2h-426q-182 637 -398 1190h643q64 -479 140 -829q25 -57 65 -60q12 3 20 6.5t18.5 17.5
t15.5 38q93 498 129 827z" />
    <glyph glyph-name="Ydieresis" unicode="&#x178;" horiz-adv-x="2234" 
d="M440 1700q-18 0 -18 16v289q0 18 20 18h568q16 0 16 -16v-287q0 -20 -20 -20h-566zM1221 1704q-13 0 -13 14v289q0 12 17 12h563q14 0 14 -16v-287q0 -12 -16 -12h-565zM1335 1491h799q-85 -170 -178.5 -344t-236.5 -430t-191 -344q-15 -29 -15 -76v-248h-759v275
q0 22 -13 59q-126 235 -347.5 617t-282.5 491h854q13 -59 36.5 -184.5t45.5 -224.5t47 -187q12 -33 45 -38.5t57 24.5q110 311 139 610z" />
    <glyph glyph-name="Zacute" unicode="&#x179;" horiz-adv-x="1841" 
d="M827 2066l-120 -364h405l305 364h-590zM1751 1491l-623 -868q-16 -19 -9.5 -35.5t32.5 -16.5h606v-522h-1675l672 871q14 19 5 37t-30 18h-645v516h1667z" />
    <glyph glyph-name="zacute" unicode="&#x17a;" horiz-adv-x="1544" 
d="M668 1800l-121 -364h407l303 364h-589zM129 883v340h1346q-79 -121 -266.5 -393.5t-266.5 -393.5q-19 -19 -12.5 -39t31.5 -20l473 16v-344h-1360l561 791q17 15 8.5 37t-37.5 22z" />
    <glyph glyph-name="Zdotaccent" unicode="&#x17b;" horiz-adv-x="1841" 
d="M637 1700q-14 0 -14 14v318q0 12 16 12h555q14 0 14 -16v-316q0 -12 -16 -12h-555zM1751 1491l-623 -868q-16 -19 -9.5 -35.5t32.5 -16.5h606v-522h-1675l672 871q14 19 5 37t-30 18h-645v516h1667z" />
    <glyph glyph-name="zdotaccent" unicode="&#x17c;" horiz-adv-x="1544" 
d="M489 1442q-12 0 -12 16v316q0 12 17 12h553q16 0 16 -14v-316q0 -14 -19 -14h-555zM129 883v340h1346q-79 -121 -266.5 -393.5t-266.5 -393.5q-19 -19 -12.5 -39t31.5 -20l473 16v-344h-1360l561 791q17 15 8.5 37t-37.5 22z" />
    <glyph glyph-name="Zcaron" unicode="&#x17d;" horiz-adv-x="1841" 
d="M1231 1702h-631l-227 364h420l133 -186l131 186h403zM1151 571h606v-522h-1675l672 871q14 19 5 37t-30 18h-645v516h1667l-623 -868q-16 -19 -9.5 -35.5t32.5 -16.5z" />
    <glyph glyph-name="zcaron" unicode="&#x17e;" horiz-adv-x="1544" 
d="M1087 1415h-630l-230 365h420l133 -189l133 189h402zM942 436q-19 -19 -12.5 -39t31.5 -20l473 16v-344h-1360l561 791q17 15 8.5 37t-37.5 22l-477 -16v340h1346q-79 -121 -266.5 -393.5t-266.5 -393.5z" />
    <glyph glyph-name="longs" unicode="&#x17f;" horiz-adv-x="1015" 
d="M96 49q10 257 10 1010q0 104 31.5 184.5t90 133.5t136.5 87.5t176 48.5t203 12.5t224 -16.5v-284q-122 14 -178 -54t-56 -200q0 -571 17 -922h-654z" />
    <glyph glyph-name="uni018F" unicode="&#x18f;" horiz-adv-x="2211" 
d="M1098 1032q-125 0 -213 -43t-105 -110l-598 198q40 127 179 236t337.5 173t405.5 64q172 0 326.5 -33.5t282.5 -101t219.5 -163.5t139 -227.5t39.5 -285.5q-7 -185 -86 -329.5t-215 -235.5t-316.5 -137.5t-395.5 -46.5q-297 0 -519.5 95t-345.5 277.5t-124 432.5h1239
q22 0 34 8.5t13 16.5t0 18q-1 85 -86 139.5t-211 54.5zM1104 502q132 0 218 50t85 138q-1 20 -15.5 32t-26 14.5t-19.5 2.5h-539q-6 0 -11 -12.5t-5 -26.5q0 -76 85 -137t228 -61z" />
    <glyph glyph-name="uni019D" unicode="&#x19d;" horiz-adv-x="2146" 
d="M53 -516l-168 448q128 -9 195 58t72 205q5 537 2 1296h815l276 -827q5 -14 23.5 -19t35.5 5.5t17 35.5v805h723q2 -139 -14 -336t-31.5 -349.5t-10 -359.5t45.5 -397h-879l-252 707q-4 13 -25.5 16.5t-42 -12.5t-20.5 -51q0 -125 11.5 -332t11.5 -273q0 -319 -194 -478.5
t-591 -141.5z" />
    <glyph glyph-name="Gcaron" unicode="&#x1e6;" horiz-adv-x="2293" 
d="M1477 1702h-631l-228 364h420l133 -186l132 186h403zM1122 1042q-309 0 -309 -231q0 -105 83 -166t216 -61q171 0 225 78q-33 -114 -106 -336t-98 -303q-208 -20 -376 11.5t-280.5 100.5t-192 174t-119 223.5t-52.5 258.5q-7 58 -3.5 115t11.5 112t30 107.5t51 100.5
t75 91t102.5 79.5t133 65.5t166.5 49.5t203 31.5t242 11q243 0 436 -45t323.5 -127t210 -191t110.5 -245l-777 -178q29 138 -57.5 206t-247.5 68zM1403 49v631q403 -45 786 -51v-580h-786z" />
    <glyph glyph-name="gcaron" unicode="&#x1e7;" horiz-adv-x="1861" 
d="M1249 1415h-631l-229 365h420l133 -189l133 189h402zM1198 1221h574q-11 -436 -11 -922q0 -128 -73 -232.5t-191 -169t-270 -101.5t-306 -39t-302 28t-257 90v258q72 -47 187 -78.5t225 -31.5q58 0 113 12.5t105 39.5t87.5 66t60 96.5t23.5 127.5q2 131 2 307
q0 118 -77 172.5t-201 54.5q-111 0 -176.5 -40t-65.5 -124q0 -98 60 -145t157 -47q150 0 191 100l-97 -381q-68 -40 -137 -51.5t-166 -11.5q-116 0 -222.5 36.5t-189.5 102t-133.5 165t-52.5 218.5q-1 94 40 181t111.5 152t159.5 114t186.5 74.5t190.5 25.5
q98 0 215.5 -53.5t196.5 -129.5q12 -5 27.5 2.5t15.5 26.5v107z" />
    <glyph glyph-name="uni01EA" unicode="&#x1ea;" horiz-adv-x="2293" 
d="M1638 59q-221 -61 -227 -165q-3 -38 26.5 -58t84.5 -20q75 0 141 26v-317q-83 -35 -154 -51.5t-159 -16.5q-211 0 -320.5 77t-109.5 214q0 41 16.5 79.5t58.5 99.5t47 69q-185 6 -328 34.5t-243 80.5t-167.5 119t-106 159.5t-54.5 192.5t-16 227q0 95 13 174.5
t44.5 156.5t82 137.5t129 112t182 86t244.5 53.5t313 19q219 0 399 -44t302.5 -120.5t206 -181.5t121.5 -224.5t38 -252.5q0 -507 -564 -666zM1155 516q80 0 141 26t95 68.5t50.5 88.5t16.5 94q0 106 -83.5 168.5t-239.5 62.5q-86 0 -145 -15.5t-90.5 -45.5t-44.5 -67
t-13 -87q0 -128 80.5 -210.5t232.5 -82.5z" />
    <glyph glyph-name="uni01EB" unicode="&#x1eb;" horiz-adv-x="1884" 
d="M938 1282q149 0 283.5 -27t245 -81.5t189 -131t117.5 -181t29 -226.5q-42 -360 -332 -522q-133 -67 -196 -122t-66 -106q-3 -37 27 -57.5t84 -20.5q72 0 141 27v-317q-158 -68 -313 -68q-210 0 -320 78t-110 213q0 41 21 84.5t58 95.5t48 72q-162 11 -306 59.5
t-253.5 128t-167.5 197.5t-45 258q38 316 265.5 481.5t600.5 165.5zM942 418q126 0 208.5 58t82.5 155q0 100 -78 160.5t-215 60.5t-206.5 -53.5t-69.5 -145.5q0 -102 76.5 -168.5t201.5 -66.5z" />
    <glyph glyph-name="Aringacute" unicode="&#x1fa;" horiz-adv-x="2400" 
d="M1112 2628l-121 -365h406l305 365h-590zM870 1913q15 117 101 181.5t227 64.5q151 0 246 -65t84 -181q-10 -119 -98 -183.5t-232 -64.5q-150 0 -247 66.5t-81 181.5zM1325 1913q0 51 -36 78.5t-91 27.5q-53 0 -88 -27.5t-35 -78.5q0 -52 35 -80.5t88 -28.5q55 0 91 28.5
t36 80.5zM1853 1491q46 -204 138.5 -465.5t188.5 -525.5t144 -451h-931l-27 160q-28 22 -53 22h-303q-36 0 -58 -22l-26 -160h-865q42 149 114.5 349.5t136 362.5t132 364.5t107.5 365.5h1302zM977 410q-4 -28 6.5 -47t28.5 -19h297q26 0 44 19t15 53q-10 91 -79 382.5
t-105 291.5h-21q-28 0 -61.5 -99t-60.5 -232.5t-43.5 -226.5t-20.5 -122z" />
    <glyph glyph-name="aringacute" unicode="&#x1fb;" horiz-adv-x="1740" 
d="M784 2367l-120 -364h407l303 364h-590zM561 1665q-1 113 83.5 173t219.5 60h45q136 -2 220.5 -65.5t84.5 -171.5q0 -116 -90 -180t-235 -64q-142 0 -233 64t-95 184zM995 1669q0 33 -24.5 56t-65.5 26h-37q-43 0 -69.5 -21t-26.5 -57q0 -42 34 -64t79 -22q44 0 77 21.5
t33 60.5zM299 1165v-387q75 46 171.5 71t193.5 25q166 0 277.5 -74t111.5 -196q0 -49 -33 -55q-67 70 -190 124t-246 54q-95 0 -173 -20.5t-130 -52.5t-95.5 -81t-69 -94.5t-50.5 -105.5q-10 -73 13.5 -138t71.5 -112t118 -79t149 -43t167.5 1t170.5 49l141 318
q-34 -69 -139 -64q-63 4 -101.5 36.5t-38.5 74.5q0 52 54 90.5t151 34.5q50 -2 95 -16t77.5 -44t32.5 -71q0 -68 -10 -361h635q-11 304 -11 725q0 86 -35.5 161t-98.5 130t-149 97t-186 65.5t-212 32.5t-224.5 1t-225 -32t-212.5 -64z" />
    <glyph glyph-name="AEacute" unicode="&#x1fc;" horiz-adv-x="3004" 
d="M1542 2066l-121 -364h406l305 364h-590zM90 49q80 223 311.5 715t313.5 727h2101v-387h-674q-39 0 -58.5 -16t-19.5 -54v-59q0 -45 45 -45h754v-295h-754q-45 0 -45 -39v-66q0 -11 3.5 -22t12.5 -24t29.5 -21t49.5 -8h800v-406h-1624q-6 205 -24 205h-275q-28 0 -90 -205
h-856zM1071 367h232q30 0 55.5 41t25.5 86q0 309 -59 596h-20q-150 -213 -267 -658q-4 -29 5.5 -47t27.5 -18z" />
    <glyph glyph-name="aeacute" unicode="&#x1fd;" horiz-adv-x="2793" 
d="M1280 1800l-121 -364h408l303 364h-590zM1884 -12q-145 0 -273.5 23t-237 70t-188 115t-125.5 162.5t-50 208.5q-58 182 -279 230q-97 45 -236 32.5t-243 -73.5v409q176 78 377.5 104t387.5 -6.5t310 -119.5q217 139 551 139q257 0 446.5 -79.5t292 -230.5t103.5 -358
h-1053q-21 0 -31.5 -7t-11.5 -14t0 -15q2 -68 76.5 -115t187.5 -47q105 0 176 36t86 93l502 -166q-35 -105 -148.5 -195t-279 -143t-340.5 -53zM1669 662h457q6 0 11 10t5 22q0 63 -72.5 113.5t-197.5 50.5q-113 0 -187 -41.5t-71 -114.5q1 -17 14 -26.5t23 -11.5t18 -2z
M889 80q-65 -42 -171.5 -62t-221.5 -9.5t-217.5 45t-169 107t-66.5 169.5q0 88 43 155t118.5 107.5t171.5 60.5t210 21h356l31 -47h-160q-95 0 -146 -28t-51 -81q0 -43 34.5 -72.5t79.5 -35.5t91.5 13.5t67.5 63.5v-407z" />
    <glyph glyph-name="Oslashacute" unicode="&#x1fe;" horiz-adv-x="2293" 
d="M1642 2066l-305 -364h-405l121 364h589zM1874 1358q161 -109 244.5 -270.5t83.5 -358.5q0 -102 -23.5 -191.5t-73 -174t-133.5 -151t-198.5 -116.5t-275.5 -77t-357 -27q-364 0 -594 84l-201 -195l-104 111l159 155q-82 53 -138 124t-84.5 159.5t-40 178t-11.5 202.5
q0 143 31 254.5t103 204t187 152.5t287.5 93t399.5 33q351 0 600 -112l219 213l106 -111zM842 809q0 -109 55 -182l391 377q-61 20 -153 20q-86 0 -145 -15.5t-90.5 -45.5t-44.5 -67t-13 -87zM1155 516q80 0 141 26t95 68.5t50.5 88.5t16.5 94q0 70 -39 125l-395 -381
q65 -21 131 -21z" />
    <glyph glyph-name="oslashacute" unicode="&#x1ff;" horiz-adv-x="1884" 
d="M1430 1800l-304 -364h-407l121 364h590zM1595 1096q232 -177 209 -465q-26 -308 -257.5 -479.5t-606.5 -171.5q-308 0 -543 122l-194 -161l-80 98l162 135q-112 85 -168 200.5t-43 256.5q38 318 265.5 484.5t600.5 166.5q316 0 543 -115l194 162l82 -96zM666 647
q0 -66 41 -125l368 307q-63 17 -135 17q-274 0 -274 -199zM950 414q140 0 212.5 60.5t72.5 150.5q0 80 -47 135l-381 -318q61 -28 143 -28z" />
    <glyph glyph-name="uni0218" unicode="&#x218;" horiz-adv-x="2170" 
d="M1155 885q359 0 568.5 -42.5t300 -130.5t90.5 -237q0 -118 -80 -212t-219 -153.5t-319 -90.5t-386 -31q-184 0 -339.5 19t-285.5 60.5t-220 103.5t-138.5 151t-44.5 200l776 58q-12 -80 60 -132.5t186 -52.5q110 0 178 47.5t68 104.5q0 33 -18.5 54.5t-54.5 32.5t-77 15
t-98 4h-150q-201 -6 -360.5 16t-257.5 62t-160 95t-83.5 111.5t-12.5 115.5q89 237 348.5 370t638.5 138q300 5 528 -65.5t344.5 -199t102.5 -292.5l-748 -54q26 85 -29 137t-165 52q-105 0 -187 -45t-82 -113q0 -43 41.5 -69.5t126.5 -26.5h158zM791 -500l49 361h471
l-140 -361h-380z" />
    <glyph glyph-name="uni0219" unicode="&#x219;" horiz-adv-x="1562" 
d="M68 893q0 95 65 172t170.5 123.5t243 72t279 25t281.5 -25.5t249 -72v-361q-58 49 -184 77t-250 28q-106 0 -172 -26.5t-66 -80.5q0 -37 32 -50t89 -13q27 0 89.5 1t96.5 1q77 0 145.5 -9.5t137.5 -34t119 -63.5t81 -103t31 -146q0 -104 -67 -186.5t-176 -131.5
t-249.5 -74.5t-283.5 -21.5t-282.5 34.5t-243.5 86.5v397q59 -61 190.5 -94t263.5 -33q111 3 175.5 33t64.5 80q0 28 -25.5 44.5t-70.5 16.5h-142q-60 0 -111.5 3t-113.5 11.5t-112 23t-99 40.5t-82 60t-53 84t-20 112zM498 -483l49 360h471l-139 -360h-381z" />
    <glyph glyph-name="uni021A" unicode="&#x21a;" horiz-adv-x="1880" 
d="M1812 1491v-494h-448q-45 0 -61.5 -18.5t-16.5 -50.5q0 -129 11 -434t8 -445h-760q49 414 49 830q0 34 -3.5 57t-19 42t-43.5 19h-450v494h1734zM657 -492l50 361h471l-140 -361h-381z" />
    <glyph glyph-name="uni021B" unicode="&#x21b;" horiz-adv-x="1323" 
d="M80 524v711l614 143q-12 -305 8 -628q-9 -43 3 -91.5t40 -90.5t77 -69.5t108 -27.5q77 0 148.5 35t99.5 96v-508q-73 -55 -189 -86t-235 -31q-128 0 -248 37.5t-215.5 105t-153 173t-57.5 231.5zM784 756q98 239 152 481h324v-481h-476zM385 -483l49 360h471l-139 -360
h-381z" />
    <glyph glyph-name="uni0232" unicode="&#x232;" horiz-adv-x="2234" 
d="M643 1735v260h950v-260h-950zM1335 1491h799q-85 -170 -178.5 -344t-236.5 -430t-191 -344q-15 -29 -15 -76v-248h-759v275q0 22 -13 59q-126 235 -347.5 617t-282.5 491h854q13 -59 36.5 -184.5t45.5 -224.5t47 -187q12 -33 45 -38.5t57 24.5q110 311 139 610z" />
    <glyph glyph-name="uni0233" unicode="&#x233;" horiz-adv-x="1847" 
d="M1395 1729v-261h-951v261h951zM1090 1235h702q-276 -754 -465 -1430h-569q14 18 27.5 36.5t25.5 39t20 34.5t19 36.5t15.5 31.5t15 32.5t12.5 27.5l-10 2h-426q-182 637 -398 1190h643q64 -479 140 -829q25 -57 65 -60q12 3 20 6.5t18.5 17.5t15.5 38q93 498 129 827z
" />
    <glyph glyph-name="uni0237" unicode="&#x237;" horiz-adv-x="786" 
d="M80 -213q31 787 8 1430l604 4q1 -147 -1 -407t-1.5 -482t6.5 -414z" />
    <glyph glyph-name="uni0259" unicode="&#x259;" horiz-adv-x="1841" 
d="M891 854q-104 0 -175 -36t-85 -93l-502 166q34 105 148 195t279 143t341 53q241 0 435 -79t312 -232.5t128 -358.5q5 -123 -37.5 -226.5t-122.5 -176t-191 -123t-241.5 -74.5t-276.5 -24q-384 0 -613 179.5t-229 487.5h1053q20 0 30 7.5t11.5 14t1.5 15.5
q-1 69 -79.5 115.5t-186.5 46.5zM909 412q113 0 186 41t72 114q-1 17 -14 27t-23 12t-18 2h-457q-6 0 -11 -10.5t-5 -22.5q0 -63 72.5 -113t197.5 -50z" />
    <glyph glyph-name="uni0272" unicode="&#x272;" horiz-adv-x="1980" 
d="M1274 49q2 43 8 133.5t9 147.5t6 140.5t3 156.5q0 49 -18 83.5t-45 49t-57 19.5t-54 0.5t-36 -13.5l129 416q83 37 175.5 51.5t180.5 3t159 -47.5t114.5 -107t43.5 -169v-864h-618zM303 -453l-188 408q131 -12 194.5 61t63.5 213q0 534 -25 992h606q-3 -263 19 -494
q-20 -125 -24.5 -217.5t-0.5 -345.5q2 -74 -2 -135t-19.5 -130t-43.5 -121t-77 -101t-116.5 -78.5t-165.5 -44t-221 -7.5z" />
    <glyph glyph-name="circumflex" unicode="&#x2c6;" horiz-adv-x="1232" 
d="M1182 1436h-420l-135 186l-131 -186h-404l230 364h630z" />
    <glyph glyph-name="caron" unicode="&#x2c7;" horiz-adv-x="1228" 
d="M780 1780h402l-228 -365h-630l-230 365h420l133 -189z" />
    <glyph glyph-name="breve" unicode="&#x2d8;" horiz-adv-x="1228" 
d="M78 1749h366q4 -51 52 -74.5t120 -23.5q156 0 172 98h365q0 -161 -136.5 -246.5t-400.5 -85.5t-401 84.5t-137 247.5z" />
    <glyph glyph-name="dotaccent" unicode="&#x2d9;" horiz-adv-x="960" 
d="M205 1442q-12 0 -12 16v316q0 12 16 12h553q16 0 16 -14v-316q0 -14 -18 -14h-555z" />
    <glyph glyph-name="ring" unicode="&#x2da;" horiz-adv-x="1228" 
d="M295 1665q-1 113 83.5 173t219.5 60h45q136 -2 220.5 -65.5t84.5 -171.5q0 -116 -90 -180t-235 -64q-142 0 -233 64t-95 184zM729 1669q0 33 -24.5 56t-65.5 26h-37q-43 0 -69.5 -21t-26.5 -57q0 -42 33.5 -64t78.5 -22q44 0 77.5 21.5t33.5 60.5z" />
    <glyph glyph-name="ogonek" unicode="&#x2db;" horiz-adv-x="1228" 
d="M418 150h510q-201 -136 -207 -232q-3 -36 25 -55t81 -19q74 0 140 27v-317q-158 -68 -312 -68q-212 0 -322 77.5t-110 213.5q0 34 17.5 71.5t44 73t54 71t50 77t29.5 80.5z" />
    <glyph glyph-name="tilde" unicode="&#x2dc;" horiz-adv-x="1228" 
d="M131 1432h272q-13 52 6 76t58 24q25 0 64.5 -17.5t77.5 -38t94 -38t110 -17.5q71 0 133.5 22.5t113.5 68.5t73.5 127.5t7.5 187.5h-269q9 -54 -9.5 -79.5t-55.5 -25.5q-28 0 -80 28t-121.5 56.5t-140.5 28.5q-78 0 -143 -23t-114.5 -69.5t-70.5 -126.5t-6 -184z" />
    <glyph glyph-name="hungarumlaut" unicode="&#x2dd;" horiz-adv-x="1601" 
d="M369 1800l-115 -364h387l262 364h-534zM975 1796l-115 -360h385l264 360h-534z" />
    <glyph glyph-name="gravecomb" unicode="&#x300;" 
d="M-807 1436l-303 364h590l121 -364h-408z" />
    <glyph glyph-name="acutecomb" unicode="&#x301;" 
d="M-754 1800l-120 -364h407l303 364h-590z" />
    <glyph glyph-name="uni0302" unicode="&#x302;" 
d="M-51 1436h-420l-135 186l-131 -186h-404l230 364h630z" />
    <glyph glyph-name="tildecomb" unicode="&#x303;" 
d="M-1098 1432h273q-13 52 5.5 76t57.5 24q25 0 64.5 -17.5t77.5 -38t94 -38t110 -17.5q71 0 133.5 22.5t113.5 68.5t73.5 127.5t7.5 187.5h-268q8 -54 -10.5 -79.5t-55.5 -25.5q-28 0 -80 28t-121.5 56.5t-140.5 28.5q-78 0 -143 -23t-114.5 -69.5t-70.5 -126.5t-6 -184z
" />
    <glyph glyph-name="uni0304" unicode="&#x304;" 
d="M-1057 1468v261h951v-261h-951z" />
    <glyph glyph-name="uni0306" unicode="&#x306;" 
d="M-1151 1749h367q4 -51 52 -74.5t120 -23.5q156 0 172 98h364q0 -161 -136 -246.5t-400 -85.5t-401.5 84.5t-137.5 247.5z" />
    <glyph glyph-name="uni0307" unicode="&#x307;" 
d="M-756 1442q-12 0 -12 16v316q0 12 16 12h553q17 0 17 -14v-316q0 -14 -19 -14h-555z" />
    <glyph glyph-name="uni0308" unicode="&#x308;" 
d="M-1450 1454q-8 0 -8 6v258q0 8 8 8h518q8 0 8 -6v-258q0 -8 -10 -8h-516zM-705 1442q-12 0 -12 14v260q0 10 15 10h516q14 0 14 -12v-260q0 -12 -14 -12h-519z" />
    <glyph glyph-name="uni030A" unicode="&#x30a;" 
d="M-934 1665q-1 113 83.5 173t219.5 60h45q136 -2 220.5 -65.5t84.5 -171.5q0 -116 -90 -180t-235 -64q-142 0 -233 64t-95 184zM-500 1669q0 33 -24.5 56t-65.5 26h-37q-43 0 -69.5 -21t-26.5 -57q0 -42 34 -64t79 -22q44 0 77 21.5t33 60.5z" />
    <glyph glyph-name="uni030B" unicode="&#x30b;" 
d="M-1233 1800l-115 -364h387l263 364h-535zM-627 1796l-114 -360h385l264 360h-535z" />
    <glyph glyph-name="uni030C" unicode="&#x30c;" 
d="M-449 1780h402l-227 -365h-631l-230 365h420l133 -189z" />
    <glyph glyph-name="dotbelowcomb" unicode="&#x323;" 
d="M-874 -481q-15 0 -15 16v315q0 13 17 13h555q14 0 14 -15v-315q0 -14 -16 -14h-555z" />
    <glyph glyph-name="uni0326" unicode="&#x326;" 
d="M-901 -483l49 360h471l-139 -360h-381z" />
    <glyph glyph-name="uni0327" unicode="&#x327;" 
d="M-733 76h211q-37 -92 -23 -131q129 2 210 -48t81 -139q0 -104 -105.5 -177t-273.5 -73q-167 0 -291 62l70 201q44 -23 84.5 -34t70 -10t51.5 10t33 24t11 34q0 31 -36 50.5t-108 9.5q-16 99 15 221z" />
    <glyph glyph-name="uni0328" unicode="&#x328;" 
d="M-811 150h510q-201 -136 -207 -232q-3 -36 25.5 -55t81.5 -19q73 0 139 27v-317q-158 -68 -311 -68q-212 0 -322.5 78t-110.5 213q0 34 17.5 71.5t44 73t54 71t50 77t29.5 80.5z" />
    <glyph glyph-name="uni03BC" unicode="&#x3bc;" horiz-adv-x="1710" 
d="M80 -195q1 80 9.5 367.5t8.5 431.5q0 324 -12 617h604q0 -98 -1 -309.5t-1 -313.5q0 -61 24.5 -98t62.5 -46t78.5 -2.5t76.5 25.5l-129 -401q-5 -2 -19 -8t-20 -8.5t-18 -6.5t-20.5 -6t-19 -3t-20.5 -1q0 -39 4 -80t11.5 -89.5t9.5 -66.5zM1010 49q1 49 9.5 239t8.5 283
q0 337 -12 650h604q0 -57 -1 -278t-0.5 -328.5t5.5 -275t14 -288.5z" />
    <glyph glyph-name="Wgrave" unicode="&#x1e80;" horiz-adv-x="2895" 
d="M1518 2066h-590l305 -364h405zM2058 1491h742q-38 -179 -159 -668t-173 -774h-873l-125 766q-3 22 -24.5 32t-43.5 1t-26 -33l-127 -766h-778q-38 217 -101 471t-138.5 534t-112.5 437h733q21 -362 117 -825q13 -21 35 -26t38.5 1.5t18.5 15.5l123 834h551l125 -829
q2 -15 35 -22.5t64.5 11.5t29.5 68q40 362 69 772z" />
    <glyph glyph-name="wgrave" unicode="&#x1e81;" horiz-adv-x="2471" 
d="M1036 1436l-303 364h590l121 -364h-408zM2408 1223q-41 -187 -138.5 -579t-141.5 -595h-739l-103 533q-7 41 -28.5 57.5t-42.5 3.5t-27 -45l-105 -549h-745q-23 103 -64.5 293.5t-68 309.5t-65 279.5t-74.5 291.5h641q50 -499 73 -688q0 -64 43 -78q32 -11 54 13
q10 9 12 22l121 731h530l102 -736q4 -28 33 -39.5t57 2.5t29 48q11 101 37 349.5t41 375.5h569z" />
    <glyph glyph-name="Wacute" unicode="&#x1e82;" horiz-adv-x="2895" 
d="M1354 2066l-121 -364h405l306 364h-590zM2058 1491h742q-38 -179 -159 -668t-173 -774h-873l-125 766q-3 22 -24.5 32t-43.5 1t-26 -33l-127 -766h-778q-38 217 -101 471t-138.5 534t-112.5 437h733q21 -362 117 -825q13 -21 35 -26t38.5 1.5t18.5 15.5l123 834h551
l125 -829q2 -15 35 -22.5t64.5 11.5t29.5 68q40 362 69 772z" />
    <glyph glyph-name="wacute" unicode="&#x1e83;" horiz-adv-x="2471" 
d="M1128 1800l-120 -364h407l303 364h-590zM2408 1223q-41 -187 -138.5 -579t-141.5 -595h-739l-103 533q-7 41 -28.5 57.5t-42.5 3.5t-27 -45l-105 -549h-745q-23 103 -64.5 293.5t-68 309.5t-65 279.5t-74.5 291.5h641q50 -499 73 -688q0 -64 43 -78q32 -11 54 13
q10 9 12 22l121 731h530l102 -736q4 -28 33 -39.5t57 2.5t29 48q11 101 37 349.5t41 375.5h569z" />
    <glyph glyph-name="Wdieresis" unicode="&#x1e84;" horiz-adv-x="2895" 
d="M764 1700q-19 0 -19 16v289q0 18 21 18h567q17 0 17 -16v-287q0 -20 -21 -20h-565zM1544 1704q-12 0 -12 14v289q0 12 16 12h563q15 0 15 -16v-287q0 -12 -17 -12h-565zM2058 1491h742q-38 -179 -159 -668t-173 -774h-873l-125 766q-3 22 -24.5 32t-43.5 1t-26 -33
l-127 -766h-778q-38 217 -101 471t-138.5 534t-112.5 437h733q21 -362 117 -825q13 -21 35 -26t38.5 1.5t18.5 15.5l123 834h551l125 -829q2 -15 35 -22.5t64.5 11.5t29.5 68q40 362 69 772z" />
    <glyph glyph-name="wdieresis" unicode="&#x1e85;" horiz-adv-x="2471" 
d="M588 1454q-8 0 -8 6v258q0 8 8 8h518q8 0 8 -6v-258q0 -8 -10 -8h-516zM1333 1442q-12 0 -12 14v260q0 10 14 10h516q15 0 15 -12v-260q0 -12 -15 -12h-518zM2408 1223q-41 -187 -138.5 -579t-141.5 -595h-739l-103 533q-7 41 -28.5 57.5t-42.5 3.5t-27 -45l-105 -549
h-745q-23 103 -64.5 293.5t-68 309.5t-65 279.5t-74.5 291.5h641q50 -499 73 -688q0 -64 43 -78q32 -11 54 13q10 9 12 22l121 731h530l102 -736q4 -28 33 -39.5t57 2.5t29 48q11 101 37 349.5t41 375.5h569z" />
    <glyph glyph-name="uni1E9E" unicode="&#x1e9e;" horiz-adv-x="2367" 
d="M1544 8q-275 0 -489 60l86 424q124 -95 264 -95q90 0 142 51t52 117q0 144 -253 144h-193q49 61 74.5 94.5t66.5 95t61.5 117t24.5 108.5h-229q-157 0 -232 -65t-75 -205q0 -92 6.5 -366.5t1.5 -438.5h-750q26 209 30.5 363t-3.5 299.5t-8 193.5q0 274 211 430t612 156
h1264q-89 -125 -213.5 -336.5t-124.5 -230.5q27 -16 75 -42.5t81.5 -45.5t77 -47.5t72.5 -57.5t56 -66.5t40.5 -84t13.5 -99.5q0 -210 -202.5 -341.5t-539.5 -131.5z" />
    <glyph glyph-name="uni1EA0" unicode="&#x1ea0;" horiz-adv-x="2400" 
d="M1853 1491q46 -204 138.5 -465.5t188.5 -525.5t144 -451h-931l-27 160q-28 22 -53 22h-303q-36 0 -58 -22l-26 -160h-865q42 149 114.5 349.5t136 362.5t132 364.5t107.5 365.5h1302zM977 410q-4 -28 6.5 -47t28.5 -19h297q26 0 44 19t15 53q-10 91 -79 382.5t-105 291.5
h-21q-28 0 -61.5 -99t-60.5 -232.5t-43.5 -226.5t-20.5 -122zM924 -485q-6 0 -10.5 5t-4.5 11v315q0 13 19 13h553q14 0 14 -15v-315q0 -14 -16 -14h-555z" />
    <glyph glyph-name="uni1EA1" unicode="&#x1ea1;" horiz-adv-x="1740" 
d="M299 1165v-387q75 46 171.5 71t193.5 25q166 0 277.5 -74t111.5 -196q0 -49 -33 -55q-67 70 -190 124t-246 54q-95 0 -173 -20.5t-130 -52.5t-95.5 -81t-69 -94.5t-50.5 -105.5q-10 -73 13.5 -138t71.5 -112t118 -79t149 -43t167.5 1t170.5 49l141 318q-34 -69 -139 -64
q-63 4 -101.5 36.5t-38.5 74.5q0 52 54 90.5t151 34.5q50 -2 95 -16t77.5 -44t32.5 -71q0 -68 -10 -361h635q-11 304 -11 725q0 86 -35.5 161t-98.5 130t-149 97t-186 65.5t-212 32.5t-224.5 1t-225 -32t-212.5 -64zM606 -481q-14 0 -14 16v315q0 13 16 13h555q15 0 15 -15
v-315q0 -14 -17 -14h-555z" />
    <glyph glyph-name="uni1EB8" unicode="&#x1eb8;" horiz-adv-x="1796" 
d="M1692 1077h-791q-78 0 -78 -69v-84q0 -45 45 -45h783v-230h-783q-45 0 -45 -39v-92q0 -11 3.5 -22t12.5 -24.5t29.5 -21.5t49.5 -8h833v-393h-1657q-4 179 15 447t33 530.5t1 464.5h1549v-414zM639 -485q-6 0 -10 5t-4 11v315q0 13 18 13h553q14 0 14 -15v-315
q0 -14 -16 -14h-555z" />
    <glyph glyph-name="uni1EB9" unicode="&#x1eb9;" horiz-adv-x="1837" 
d="M944 403q112 0 180 39t84 103l500 -166q-35 -105 -148.5 -195t-279 -143t-340.5 -53q-242 0 -435.5 78.5t-311.5 232t-127 358.5q-5 123 37.5 226.5t122 176t190.5 123.5t242 75t276 24q393 0 617 -175.5t225 -492.5h-1053q-21 0 -31.5 -7t-11.5 -14t0 -15
q1 -76 76 -125.5t188 -49.5zM928 870q-119 0 -189 -44t-69 -124q1 -17 14 -26.5t23 -11.5t18 -2h457q6 0 11 10t5 22q0 70 -69.5 123t-200.5 53zM639 -481q-14 0 -14 16v315q0 13 16 13h555q14 0 14 -15v-315q0 -14 -16 -14h-555z" />
    <glyph glyph-name="uni1EBC" unicode="&#x1ebc;" horiz-adv-x="1796" 
d="M395 1686h273q-13 52 5.5 76t57.5 24q25 0 64.5 -17.5t77.5 -38t94 -38t110 -17.5q56 0 107.5 13t98 44t77.5 76.5t44 115t1 155.5h-268q9 -53 -10 -79t-56 -26q-24 0 -62 18t-75 39.5t-93 39.5t-112 18q-78 0 -143 -23.5t-114.5 -70t-70.5 -126t-6 -183.5zM1692 1077
h-791q-78 0 -78 -69v-84q0 -45 45 -45h783v-230h-783q-45 0 -45 -39v-92q0 -11 3.5 -22t12.5 -24.5t29.5 -21.5t49.5 -8h833v-393h-1657q-4 179 15 447t33 530.5t1 464.5h1549v-414z" />
    <glyph glyph-name="uni1EBD" unicode="&#x1ebd;" horiz-adv-x="1837" 
d="M416 1432h272q-13 52 6 76t58 24q25 0 64.5 -17.5t77.5 -38t94 -38t110 -17.5q71 0 133.5 22.5t113 68.5t73 127t7.5 188h-268q9 -54 -9.5 -79.5t-55.5 -25.5q-28 0 -80 28t-121.5 56.5t-140.5 28.5q-78 0 -143 -23t-114.5 -69.5t-70.5 -126.5t-6 -184zM944 403
q112 0 180 39t84 103l500 -166q-35 -105 -148.5 -195t-279 -143t-340.5 -53q-242 0 -435.5 78.5t-311.5 232t-127 358.5q-5 123 37.5 226.5t122 176t190.5 123.5t242 75t276 24q393 0 617 -175.5t225 -492.5h-1053q-21 0 -31.5 -7t-11.5 -14t0 -15q1 -76 76 -125.5
t188 -49.5zM928 870q-119 0 -189 -44t-69 -124q1 -17 14 -26.5t23 -11.5t18 -2h457q6 0 11 10t5 22q0 70 -69.5 123t-200.5 53z" />
    <glyph glyph-name="uni1ECA" unicode="&#x1eca;" horiz-adv-x="925" 
d="M88 49q-5 214 8 700.5t6 741.5h729q-12 -208 -13 -424.5t4.5 -353t16.5 -352.5t15 -312h-766zM197 -485q-6 0 -10.5 5t-4.5 11v315q0 13 19 13h553q14 0 14 -15v-315q0 -14 -16 -14h-555z" />
    <glyph glyph-name="uni1ECB" unicode="&#x1ecb;" horiz-adv-x="784" 
d="M82 762v477h610v-330q0 -9 -30 -20q-548 -120 -580 -127zM80 49q0 50 10.5 286.5t3.5 358.5h586q0 -428 22 -645h-622zM115 -481q-15 0 -15 16v315q0 13 17 13h555q14 0 14 -15v-315q0 -14 -16 -14h-555z" />
    <glyph glyph-name="uni1ECC" unicode="&#x1ecc;" horiz-adv-x="2293" 
d="M1135 1548q-227 0 -399.5 -33t-287.5 -93t-187 -152.5t-103 -204t-31 -254.5q0 -83 5.5 -151t20.5 -139.5t40.5 -129t66 -113.5t95.5 -98t131 -78.5t171 -60t217 -36.5t267 -13q196 0 357 27t275.5 77t198.5 116.5t133.5 151t73 174t23.5 191.5q0 178 -69 327t-200.5 259
t-335.5 171.5t-462 61.5zM1135 1024q156 0 239.5 -62.5t83.5 -168.5q0 -48 -16.5 -94t-50.5 -88.5t-95 -68.5t-141 -26q-152 0 -232.5 82.5t-80.5 210.5q0 50 13 87t44.5 67t90.5 45.5t145 15.5zM860 -485q-6 0 -10 5t-4 11v315q0 13 18 13h553q15 0 15 -15v-315
q0 -14 -17 -14h-555z" />
    <glyph glyph-name="uni1ECD" unicode="&#x1ecd;" horiz-adv-x="1884" 
d="M938 -20q-116 0 -227.5 19.5t-211.5 56t-182.5 93.5t-140.5 127.5t-86 161.5t-18 193q38 318 265.5 484.5t600.5 166.5q149 0 283.5 -27t245 -82t189 -132t117.5 -182t29 -228q-26 -308 -257.5 -479.5t-606.5 -171.5zM948 414q140 0 212.5 60.5t72.5 150.5q0 43 -15 80.5
t-47.5 70t-92 51.5t-140.5 19q-274 0 -274 -199q0 -92 74.5 -162.5t209.5 -70.5zM662 -481q-15 0 -15 16v315q0 13 17 13h555q14 0 14 -15v-315q0 -14 -16 -14h-555z" />
    <glyph glyph-name="uni1EE4" unicode="&#x1ee4;" horiz-adv-x="2070" 
d="M117 1491q0 -84 6.5 -213.5t12.5 -231.5t5.5 -229t-12.5 -229q-12 -99 17 -185.5t91.5 -151.5t150 -116.5t194 -84t222 -49.5t234.5 -17q180 0 343 39t295.5 113.5t210.5 197t77 276.5q-4 543 8 881h-745q3 -132 28.5 -402.5t26.5 -418.5q1 -76 -53.5 -117t-136.5 -41
q-73 0 -133.5 23.5t-103 81t-42.5 141.5q0 303 10 733h-706zM748 -485q-6 0 -10.5 5t-4.5 11v315q0 13 19 13h553q14 0 14 -15v-315q0 -14 -16 -14h-555z" />
    <glyph glyph-name="uni1EE5" unicode="&#x1ee5;" horiz-adv-x="1710" 
d="M709 1221q-35 -440 -35 -621q0 -56 18.5 -92.5t47 -50t62.5 -14t65 9t55 24.5l-131 -401q-51 -24 -116 -40.5t-136.5 -21t-142 3t-132.5 33.5t-108 67t-68.5 107.5t-13.5 151.5q19 108 25 234.5t4.5 195t-11 225.5t-10.5 189h627zM1618 1221q0 -77 -1 -281.5t-1 -322
t4.5 -282.5t13.5 -286h-628q2 50 7.5 159t9 200t3.5 163q0 357 -14 650h606zM578 -481q-15 0 -15 16v315q0 13 17 13h555q14 0 14 -15v-315q0 -14 -16 -14h-555z" />
    <glyph glyph-name="Ygrave" unicode="&#x1ef2;" horiz-adv-x="2234" 
d="M1194 2066h-590l305 -364h406zM1335 1491h799q-85 -170 -178.5 -344t-236.5 -430t-191 -344q-15 -29 -15 -76v-248h-759v275q0 22 -13 59q-126 235 -347.5 617t-282.5 491h854q13 -59 36.5 -184.5t45.5 -224.5t47 -187q12 -33 45 -38.5t57 24.5q110 311 139 610z" />
    <glyph glyph-name="ygrave" unicode="&#x1ef3;" horiz-adv-x="1847" 
d="M1135 1436h-408l-303 364h590zM1090 1235h702q-276 -754 -465 -1430h-569q14 18 27.5 36.5t25.5 39t20 34.5t19 36.5t15.5 31.5t15 32.5t12.5 27.5l-10 2h-426q-182 637 -398 1190h643q64 -479 140 -829q25 -57 65 -60q12 3 20 6.5t18.5 17.5t15.5 38q93 498 129 827z
" />
    <glyph glyph-name="uni1EF8" unicode="&#x1ef8;" horiz-adv-x="2234" 
d="M592 1686h272q-13 52 6 76t58 24q25 0 64.5 -17.5t77.5 -38t94 -38t110 -17.5q56 0 107.5 13t98 44t77.5 76.5t44 115t1 155.5h-269q9 -53 -9.5 -79t-55.5 -26q-24 0 -62 18t-75 39.5t-93 39.5t-112 18q-78 0 -143 -23.5t-114.5 -70t-70.5 -126t-6 -183.5zM1335 1491h799
q-85 -170 -178.5 -344t-236.5 -430t-191 -344q-15 -29 -15 -76v-248h-759v275q0 22 -13 59q-126 235 -347.5 617t-282.5 491h854q13 -59 36.5 -184.5t45.5 -224.5t47 -187q12 -33 45 -38.5t57 24.5q110 311 139 610z" />
    <glyph glyph-name="uni1EF9" unicode="&#x1ef9;" horiz-adv-x="1847" 
d="M692 1432h-272q-15 104 6 184t70.5 126.5t114.5 69.5t143 23q71 0 140.5 -28.5t121.5 -56.5t80 -28q37 0 55.5 25.5t9.5 79.5h269q15 -106 -7.5 -187.5t-73.5 -127.5t-113.5 -68.5t-133.5 -22.5q-54 0 -110 17.5t-94 38t-77.5 38t-64.5 17.5q-39 0 -58 -24t-6 -76z
M1090 1235h702q-276 -754 -465 -1430h-569q14 18 27.5 36.5t25.5 39t20 34.5t19 36.5t15.5 31.5t15 32.5t12.5 27.5l-10 2h-426q-182 637 -398 1190h643q64 -479 140 -829q25 -57 65 -60q12 3 20 6.5t18.5 17.5t15.5 38q93 498 129 827z" />
    <glyph glyph-name="endash" unicode="&#x2013;" horiz-adv-x="1439" 
d="M82 887h1276v-408h-1276v408z" />
    <glyph glyph-name="emdash" unicode="&#x2014;" horiz-adv-x="2275" 
d="M59 887h2157v-408h-2157v408z" />
    <glyph glyph-name="quoteleft" unicode="&#x2018;" horiz-adv-x="759" 
d="M86 1489l588 -125v-506h-588v631z" />
    <glyph glyph-name="quoteright" unicode="&#x2019;" horiz-adv-x="759" 
d="M674 854l-588 127v506h588v-633z" />
    <glyph glyph-name="quotesinglbase" unicode="&#x201a;" horiz-adv-x="806" 
d="M674 -580l-588 125v506h588v-631z" />
    <glyph glyph-name="quotedblleft" unicode="&#x201c;" horiz-adv-x="1542" 
d="M117 1487l585 -127v-506h-585v633zM838 1487l587 -127v-506h-587v633z" />
    <glyph glyph-name="quotedblright" unicode="&#x201d;" horiz-adv-x="1540" 
d="M702 854l-585 127v506h585v-633zM1423 854l-585 127v506h585v-633z" />
    <glyph glyph-name="quotedblbase" unicode="&#x201e;" horiz-adv-x="1540" 
d="M694 -580l-585 125v506h585v-631zM1415 -580l-588 125v506h588v-631z" />
    <glyph glyph-name="bullet" unicode="&#x2022;" horiz-adv-x="593" 
d="M61 715q0 110 65 168.5t171 58.5q108 0 173 -58t65 -169t-65 -170.5t-173 -59.5q-106 0 -171 59t-65 171z" />
    <glyph glyph-name="ellipsis" unicode="&#x2026;" horiz-adv-x="2484" 
d="M88 49v477h649v-477h-649zM918 49v477h649v-477h-649zM1747 49v477h649v-477h-649z" />
    <glyph glyph-name="minute" unicode="&#x2032;" horiz-adv-x="845" 
d="M674 887h-588l86 600h588z" />
    <glyph glyph-name="second" unicode="&#x2033;" horiz-adv-x="1654" 
d="M702 887h-585l86 600h585zM1456 887h-586l86 600h586z" />
    <glyph glyph-name="guilsinglleft" unicode="&#x2039;" horiz-adv-x="815" 
d="M328 1040h383l-254 -462l254 -463h-383l-260 463z" />
    <glyph glyph-name="guilsinglright" unicode="&#x203a;" horiz-adv-x="815" 
d="M487 1040l261 -462l-261 -463h-381l252 463l-252 462h381z" />
    <glyph glyph-name="uni2074" unicode="&#x2074;" horiz-adv-x="1267" 
d="M1200 1063v-189h-78q-16 0 -16 -24v-72h-434v72q0 8 -8 15t-23 7h-571v283q63 40 129.5 98.5t109 103.5t111 121.5t100.5 110.5h475q-89 -78 -267.5 -237t-270.5 -240q-17 -14 -11.5 -33.5t33.5 -19.5h156q41 0 41 31q0 52 -8 122l436 220v-347q0 -9 5.5 -15.5t14.5 -6.5
h76z" />
    <glyph glyph-name="uni2082" unicode="&#x2082;" horiz-adv-x="1224" 
d="M461 203q63 16 106.5 29t95.5 34t79.5 46.5t27.5 54.5q0 39 -31 64.5t-75 30.5t-88.5 -1.5t-75.5 -32t-31 -61.5q0 -53 115 -72q-100 11 -287.5 34t-224.5 27q-4 88 42.5 158.5t127.5 113t183 65t216 22.5q101 0 193 -16.5t167 -48.5t119.5 -84t44.5 -117
q-2 -118 -175 -183.5t-529 -62.5zM1155 127v-264l-1065 2v246q192 15 309 57q292 -41 756 -41z" />
    <glyph glyph-name="Euro" unicode="&#x20ac;" horiz-adv-x="2416" 
d="M1296 522q107 0 177 47.5t79 141.5l756 -86q-20 -134 -94 -247t-199 -200t-314 -136.5t-423 -49.5q-163 0 -297.5 19t-235 52t-179 84t-131 110t-88.5 134.5t-55 152.5t-28 169h-160v114h154q-3 190 66 329.5t203.5 224t320 125t428.5 40.5q452 -7 715 -158t317 -430
l-764 -129q0 91 -68.5 141t-203.5 50q-139 0 -222 -47t-92 -146h332v-114h-313q36 -86 126.5 -138.5t192.5 -52.5z" />
    <glyph glyph-name="minus" unicode="&#x2212;" horiz-adv-x="1214" 
d="M76 838h1063v-365h-1063v365z" />
    <glyph glyph-name="uni00A40301" horiz-adv-x="1275" 
d="M709 2066l-123 -364h407l305 364h-589zM61 618q67 -51 141 -72t131.5 -3t74.5 75q33 17 42 135.5t-1 278.5t-21 274t-20 185h751q-19 -99 -14.5 -257t18 -288.5t27.5 -251.5t14 -145q0 -123 -37 -220t-99 -159.5t-149 -103t-180.5 -57t-199.5 -15.5q-303 0 -494 104z" />
    <glyph glyph-name="uni006A0301" horiz-adv-x="786" 
d="M289 1800l-121 -364h407l304 364h-590zM80 -213q31 787 8 1430l604 4q1 -147 -1 -407t-1.5 -482t6.5 -414z" />
    <glyph glyph-name="a.alt" horiz-adv-x="1744" 
d="M1675 49h-647q8 146 8 561q0 90 -52 152.5t-131 89.5t-177 27q-223 0 -391 -99v394q129 58 283 87t305 28.5t293 -33.5t250 -93.5t173.5 -159t65.5 -221.5v-103v-114t0.5 -100.5t2 -113.5t3.5 -98t5.5 -109t8.5 -95zM776 299q44 0 75.5 13.5t49.5 54.5l-135 -316
q-108 -51 -233.5 -56.5t-231 29.5t-176 120t-70.5 202q0 68 31 129t89 109t148.5 76.5t202.5 29.5q116 0 216 -37t149 -100v-107q0 41 -39 59.5t-88 18.5q-61 0 -96 -29.5t-35 -70.5q0 -56 39.5 -90.5t103.5 -34.5zM901 367l2 2q0 -2 -2 -2z" />
    <glyph glyph-name="adieresis.alt" horiz-adv-x="1744" 
d="M219 1454q-8 0 -8 6v258q0 8 8 8h518q8 0 8 -6v-258q0 -8 -10 -8h-516zM965 1442q-13 0 -13 14v260q0 10 15 10h516q14 0 14 -12v-260q0 -12 -14 -12h-518zM1675 49h-647q8 146 8 561q0 90 -52 152.5t-131 89.5t-177 27q-223 0 -391 -99v394q129 58 283 87t305 28.5
t293 -33.5t250 -93.5t173.5 -159t65.5 -221.5v-103v-114t0.5 -100.5t2 -113.5t3.5 -98t5.5 -109t8.5 -95zM776 299q44 0 75.5 13.5t49.5 54.5l-135 -316q-108 -51 -233.5 -56.5t-231 29.5t-176 120t-70.5 202q0 68 31 129t89 109t148.5 76.5t202.5 29.5q116 0 216 -37
t149 -100v-107q0 41 -39 59.5t-88 18.5q-61 0 -96 -29.5t-35 -70.5q0 -56 39.5 -90.5t103.5 -34.5zM901 367l2 2q0 -2 -2 -2z" />
    <glyph glyph-name="e.alt" horiz-adv-x="1841" 
d="M938 401q103 0 165.5 35t80.5 99l499 -164q-34 -107 -147.5 -196t-274.5 -140t-333 -51q-189 0 -348.5 40t-277 116t-180 195t-54.5 269q21 319 243 498.5t629 179.5q391 0 608 -175.5t217 -492.5h-1079q-20 0 -20 -18q2 -76 77 -135.5t195 -59.5zM936 870
q-120 0 -198.5 -47t-78.5 -129q0 -18 9.5 -25t19.5 -7h490q4 0 12.5 4t18.5 14.5t10 24.5q0 73 -71.5 119t-211.5 46z" />
    <glyph glyph-name="i.alt" horiz-adv-x="763" 
d="M80 743q2 80 0 245t0 243h610v-328q-105 -22 -306 -79.5t-304 -80.5zM76 49q-3 78 3.5 209.5t8.5 216t-12 219.5h610q5 -108 5 -324t5 -321h-620z" />
    <glyph glyph-name="l.alt" horiz-adv-x="772" 
d="M84 45q22 905 -4 1446h592q0 -109 -3 -430.5t-1 -560.5t12 -455h-596z" />
    <glyph glyph-name="o.alt" horiz-adv-x="1878" 
d="M59 666q-9 120 31 221.5t117 173.5t185.5 122.5t235.5 74.5t267 24h115q137 -2 258.5 -27.5t224 -77t176 -125t115 -176t41.5 -225.5q0 -130 -42.5 -237.5t-120.5 -185t-188 -131t-243.5 -79.5t-288.5 -26q-240 0 -432 79t-312 233t-139 362zM1221 674q0 70 -63 121.5
t-165 52.5h-100q-55 0 -104.5 -17t-86 -59.5t-36.5 -103.5q0 -109 79.5 -174.5t202.5 -65.5q109 0 191 73.5t82 172.5z" />
    <glyph glyph-name="odieresis.alt" horiz-adv-x="1884" 
d="M297 1454q-8 0 -8 6v258q0 8 8 8h518q8 0 8 -6v-258q0 -8 -10 -8h-516zM1042 1442q-12 0 -12 14v260q0 10 14 10h517q14 0 14 -12v-260q0 -12 -14 -12h-519zM938 -20q-116 0 -227.5 19.5t-211.5 56t-182.5 93.5t-140.5 127.5t-86 161.5t-18 193q38 318 265.5 484.5
t600.5 166.5q149 0 283.5 -27t245 -82t189 -132t117.5 -182t29 -228q-26 -308 -257.5 -479.5t-606.5 -171.5zM948 414q140 0 212.5 60.5t72.5 150.5q0 43 -15 80.5t-47.5 70t-92 51.5t-140.5 19q-274 0 -274 -199q0 -92 74.5 -162.5t209.5 -70.5z" />
    <glyph glyph-name="s.alt" horiz-adv-x="1531" 
d="M76 881q-7 92 54.5 168.5t166.5 124.5t243 76t281 30t285 -21.5t250 -70.5v-352q-159 90 -434 90q-44 0 -83.5 -4.5t-75.5 -14t-57.5 -28t-21.5 -43.5q0 -66 137 -66h154q95 0 179 -18.5t159.5 -58.5t126.5 -113t65 -172q7 -85 -38.5 -157t-129 -120t-192.5 -81t-235 -43
t-250.5 -3.5t-244.5 35.5t-212 76v397q84 -65 218.5 -99t256.5 -34q240 0 240 106q0 29 -34 55.5t-77 26.5q-24 0 -81.5 -11t-82.5 -11q-58 0 -108.5 3t-107.5 12.5t-103.5 25t-91 41.5t-76 60t-53 83.5t-27.5 110.5z" />
    <glyph glyph-name="t.alt" horiz-adv-x="1343" 
d="M88 580q0 55 0.5 163.5t0.5 175t-1 157.5t-4 163l639 147q-27 -452 -27 -630q0 -72 32.5 -126.5t84.5 -82.5t117 -37.5t128.5 1t121 39.5t92.5 73l2 -467q-117 -77 -253.5 -115t-266.5 -36t-252 42.5t-213 111.5t-146 180.5t-55 240.5zM780 754q8 26 45 142.5t59 192
t40 148.5h362v-483h-506z" />
    <glyph glyph-name="u.alt" horiz-adv-x="1710" 
d="M694 1221q-22 -276 -22 -621q0 -53 22 -88t55 -46t69 -7t65 22l-129 -401q-43 -22 -100.5 -37t-122 -19t-129.5 3t-124.5 32t-105 64.5t-73 105t-27.5 148.5q0 12 1 427.5t-1 416.5h622zM1612 1221q-12 -544 8 -1170l-596 -2q7 272 -27 469q6 79 7.5 182.5t0.5 168.5
t-4 192.5t-4 159.5h615z" />
    <glyph glyph-name="y.alt" horiz-adv-x="1839" 
d="M63 1237l648 -2q11 -89 29 -252t35 -298.5t36 -254.5q5 -36 42.5 -51t75.5 -0.5t44 51.5q97 579 123 805h690q-39 -112 -119 -340t-130.5 -374t-116 -347.5t-113.5 -368.5h-586q14 17 88 96.5t106 129.5q3 18 -26 18h-455q-46 143 -112.5 377.5t-129 437t-129.5 373.5z
" />
    <glyph glyph-name="uni0308.case" 
d="M-1391 1700q-18 0 -18 16v289q0 18 20 18h568q16 0 16 -16v-287q0 -20 -20 -20h-566zM-610 1704q-13 0 -13 14v289q0 12 17 12h563q14 0 14 -16v-287q0 -12 -16 -12h-565z" />
    <glyph glyph-name="uni0307.case" 
d="M-795 1700q-14 0 -14 14v318q0 12 16 12h555q15 0 15 -16v-316q0 -12 -17 -12h-555z" />
    <glyph glyph-name="gravecomb.case" 
d="M-621 2066h-589l305 -364h405z" />
    <glyph glyph-name="acutecomb.case" 
d="M-731 2066l-121 -364h406l305 364h-590z" />
    <glyph glyph-name="uni030B.case" 
d="M-1219 2066l-114 -364h385l262 364h-533zM-612 2062l-117 -360h385l264 360h-532z" />
    <glyph glyph-name="uni0302.case" 
d="M-41 1702h-420l-133 188l-133 -188h-401l227 364h631z" />
    <glyph glyph-name="uni030C.case" 
d="M-444 2066h403l-229 -364h-631l-227 364h419l134 -186z" />
    <glyph glyph-name="uni0306.case" 
d="M-1151 2023h367q4 -51 52 -75.5t120 -24.5q156 0 172 100h364q0 -162 -136 -246.5t-400 -84.5q-264 -1 -401.5 83.5t-137.5 247.5z" />
    <glyph glyph-name="uni030A.case" 
d="M-942 1913q15 117 101 181.5t227 64.5q150 0 245 -65t84 -181q-10 -119 -97.5 -183.5t-231.5 -64.5q-150 0 -247 66.5t-81 181.5zM-487 1913q0 51 -36 78.5t-91 27.5q-53 0 -88 -27.5t-35 -78.5q0 -52 35 -80.5t88 -28.5q55 0 91 28.5t36 80.5z" />
    <glyph glyph-name="tildecomb.case" 
d="M-1114 1686h272q-13 52 6 76t58 24q25 0 64.5 -17.5t77.5 -38t94 -38t110 -17.5q56 0 107.5 13t98 44t77.5 76.5t44 115t1 155.5h-269q9 -53 -9.5 -79t-55.5 -26q-24 0 -62 18t-75 39.5t-93 39.5t-112 18q-78 0 -143 -23.5t-114.5 -70t-70.5 -126t-6 -183.5z" />
    <glyph glyph-name="uni0304.case" 
d="M-1057 1735v260h951v-260h-951z" />
    <glyph glyph-name="dotbelowcomb.case" 
d="M-872 -485q-6 0 -10.5 5t-4.5 11v315q0 13 19 13h553q14 0 14 -15v-315q0 -14 -16 -14h-555z" />
    <glyph glyph-name="uni0326.case" 
d="M-901 -492l49 361h471l-139 -361h-381z" />
    <glyph glyph-name="uni0327.case" 
d="M-717 80h211q-37 -88 -22 -131q129 2 208.5 -48t79.5 -139q0 -104 -104.5 -176.5t-271.5 -72.5q-162 0 -291 61l69 201q44 -23 84.5 -34t69.5 -10t50.5 10t32.5 24t11 34q0 31 -35 50.5t-106 9.5q-16 103 14 221z" />
    <glyph glyph-name="uni0328.case" 
d="M-811 150h510q-201 -136 -207 -232q-3 -36 25.5 -55t81.5 -19q73 0 139 27v-317q-158 -68 -311 -68q-212 0 -322.5 78t-110.5 213q0 34 17.5 71.5t44 73t54 71t50 77t29.5 80.5z" />
    <glyph glyph-name="IJacute" horiz-adv-x="2201" 
d="M373 2066l-121 -364h405l306 364h-590zM1634 2066l-123 -364h408l305 364h-590zM88 49q-5 214 8 700.5t6 741.5h729q-12 -208 -13 -424.5t4.5 -353t16.5 -352.5t15 -312h-766zM987 618q68 -51 141 -72t130.5 -3t74.5 75q33 17 42 135.5t-1 278.5t-21 274t-20 185h752
q-19 -99 -14.5 -257t18 -288.5t27.5 -251.5t14 -145q0 -123 -37 -220t-99.5 -159.5t-149.5 -103t-180.5 -57t-199.5 -15.5q-302 0 -493 104z" />
    <glyph glyph-name="ijacute" horiz-adv-x="1562" 
d="M287 1800l-121 -364h407l304 364h-590zM1065 1800l-121 -364h408l303 364h-590zM76 49q0 88 10.5 520.5t3.5 651.5h586q0 -787 22 -1172h-622zM856 -213q31 787 8 1430l604 4q1 -144 -1 -406.5t-1 -483.5t7 -413z" />
    </font>
</defs>
</svg>
