<?xml version="1.0" standalone="no"?>
<!DOCTYPE svg PUBLIC "-//W3C//DTD SVG 1.1//EN" "http://www.w3.org/Graphics/SVG/1.1/DTD/svg11.dtd" >
<svg xmlns="http://www.w3.org/2000/svg" xmlns:xlink="http://www.w3.org/1999/xlink" version="1.1">
<metadata>
Created by FontForge 20170731 at Fri Mar 25 15:36:20 2016
 By Aleksey,,,
Copyright (c) 2013 Textaxis. v 1.0 by In~igo Jerez. Barcelona. All rights reserved.
</metadata>
<defs>
<font id="Eina01-SemiBold" horiz-adv-x="582" >
  <font-face 
    font-family="Eina01-SemiBold"
    font-weight="400"
    font-stretch="normal"
    units-per-em="1000"
    panose-1="2 0 0 0 0 0 0 0 0 0"
    ascent="770"
    descent="-230"
    x-height="519"
    cap-height="710"
    bbox="-52 -261 1252 1099"
    underline-thickness="50"
    underline-position="-150"
    unicode-range="U+0020-FB02"
  />
<missing-glyph horiz-adv-x="260" 
 />
    <glyph glyph-name="fi" unicode="fi" horiz-adv-x="599" 
d="M97 519v55q0 88 45 132t123 44l40 -3v-105q-6 2 -22 2q-36 0 -51.5 -17.5t-15.5 -59.5v-48h92v-95h-92v-424h-119v424h-83v95h83zM453 606q-33 0 -54 20.5t-21 52.5q0 33 21 54t54 21q32 0 53 -21t21 -54q0 -32 -21 -52.5t-53 -20.5zM393 0v519h119v-519h-119z" />
    <glyph glyph-name="fl" unicode="fl" horiz-adv-x="585" 
d="M97 519v55q0 88 45 132t123 44l40 -3v-105q-6 2 -22 2q-36 0 -51.5 -17.5t-15.5 -59.5v-48h92v-95h-92v-424h-119v424h-83v95h83zM513 0h-119v750h119v-750z" />
    <glyph glyph-name=".notdef" horiz-adv-x="260" 
 />
    <glyph glyph-name=".null" horiz-adv-x="0" 
 />
    <glyph glyph-name="nonmarkingreturn" horiz-adv-x="333" 
 />
    <glyph glyph-name="space" unicode=" " horiz-adv-x="260" 
 />
    <glyph glyph-name="exclam" unicode="!" horiz-adv-x="270" 
d="M86 200l-21 510h140l-21 -510h-98zM135 -8q-34 0 -56 21.5t-22 55.5t22 55.5t56 21.5t56 -21.5t22 -55.5t-21.5 -55.5t-56.5 -21.5z" />
    <glyph glyph-name="quotedbl" unicode="&#x22;" horiz-adv-x="430" 
d="M176 710v-316h-112v316h112zM366 710v-316h-112v316h112z" />
    <glyph glyph-name="numbersign" unicode="#" horiz-adv-x="616" 
d="M582 507l-19 -89h-96l-27 -127h96l-18 -89h-97l-42 -202h-92l42 202h-102l-42 -202h-92l43 202h-102l19 89h102l26 127h-102l19 89h102l43 203h92l-43 -203h102l43 203h92l-43 -203h96zM273 418l-27 -127h102l27 127h-102z" />
    <glyph glyph-name="dollar" unicode="$" 
d="M334 -125h-65v111q-113 6 -172.5 70.5t-61.5 159.5h120q4 -49 32.5 -80.5t81.5 -38.5v211l-43 13q-169 51 -169 201q0 81 58.5 137t153.5 64v112h65v-112q100 -10 155 -72.5t57 -155.5h-121q-2 42 -25 73.5t-66 41.5v-196l23 -6q98 -27 143.5 -80t45.5 -135t-56.5 -138
t-155.5 -67v-113zM178 526q0 -38 19.5 -56t71.5 -38v181q-42 -5 -66.5 -28t-24.5 -59zM423 192q0 36 -20.5 59.5t-68.5 38.5v-191q41 7 65 31t24 62z" />
    <glyph glyph-name="percent" unicode="%" horiz-adv-x="955" 
d="M237 0l392 710h89l-392 -710h-89zM170 489q0 -75 17 -106.5t51 -31.5t51 31.5t17 106.5q0 76 -17 108t-51 32t-51 -32t-17 -108zM76 489q0 106 40 166.5t122 60.5t122 -60.5t40 -166.5q0 -105 -40 -165t-122 -60t-122 60t-40 165zM649 220q0 -76 17 -107.5t51 -31.5
t51 31.5t17 107.5q0 75 -17 107t-51 32t-51 -32t-17 -107zM555 220q0 105 40 165.5t122 60.5t122 -60.5t40 -165.5q0 -106 -40 -166t-122 -60t-122 60t-40 166z" />
    <glyph glyph-name="ampersand" unicode="&#x26;" horiz-adv-x="674" 
d="M109 543q0 76 54 129t148 53q93 0 147 -52.5t54 -126.5q0 -124 -158 -190l138 -146q28 53 28 123l-4 60h109q4 -29 4 -58q0 -119 -62 -207l120 -128h-146l-48 51q-86 -66 -206 -66q-112 0 -181 56.5t-69 147.5q0 138 143 201q-71 74 -71 153zM290 89q74 0 131 40
l-170 183q-51 -22 -74.5 -49t-23.5 -67q0 -48 36.5 -77.5t100.5 -29.5zM220 543q0 -44 55 -101l7 -9l30 13q89 36 89 100q0 36 -25 59.5t-65 23.5q-41 0 -66 -24t-25 -62z" />
    <glyph glyph-name="quotesingle" unicode="'" horiz-adv-x="240" 
d="M176 710v-316h-112v316h112z" />
    <glyph glyph-name="parenleft" unicode="(" horiz-adv-x="348" 
d="M211 292q0 -249 111 -458h-120q-112 183 -112 458t112 458h120q-111 -210 -111 -458z" />
    <glyph glyph-name="parenright" unicode=")" horiz-adv-x="348" 
d="M137 292q0 248 -111 458h120q112 -183 112 -458t-112 -458h-120q111 209 111 458z" />
    <glyph glyph-name="asterisk" unicode="*" horiz-adv-x="388" 
d="M372 567l-115 -37l70 -97l-63 -47l-71 98l-70 -98l-64 47l72 97l-115 37l25 75l114 -37v120h78v-121l114 38z" />
    <glyph glyph-name="plus" unicode="+" 
d="M235 519h112v-204h205v-112h-205v-203h-112v203h-205v112h205v204z" />
    <glyph glyph-name="comma" unicode="," horiz-adv-x="245" 
d="M70 139h133l-82 -270h-106z" />
    <glyph glyph-name="hyphen" unicode="-" horiz-adv-x="406" 
d="M362 315v-111h-318v111h318z" />
    <glyph glyph-name="period" unicode="." horiz-adv-x="245" 
d="M123 -8q-36 0 -59.5 22.5t-23.5 58.5q0 35 23.5 58.5t59.5 23.5q35 0 58.5 -23.5t23.5 -58.5q0 -36 -23 -58.5t-59 -22.5z" />
    <glyph glyph-name="slash" unicode="/" horiz-adv-x="453" 
d="M22 0l289 710h120l-289 -710h-120z" />
    <glyph glyph-name="zero" unicode="0" 
d="M291 -15q-124 0 -189.5 100.5t-65.5 269.5t65.5 269.5t189.5 100.5q123 0 189 -100.5t66 -269.5t-66 -269.5t-189 -100.5zM291 610q-131 0 -131 -255t131 -255t131 255t-131 255z" />
    <glyph glyph-name="one" unicode="1" 
d="M526 101v-101h-434v101h156v489h-152v80l176 40h98v-609h156z" />
    <glyph glyph-name="two" unicode="2" 
d="M535 0h-483v101l280 267q67 63 67 135q0 50 -31 80t-83 30q-57 0 -86 -33t-29 -87l3 -33h-121q-2 15 -2 35q0 103 64.5 166.5t170.5 63.5q110 0 173.5 -61t63.5 -158q0 -69 -27.5 -122t-93.5 -111l-182 -161h316v-112z" />
    <glyph glyph-name="three" unicode="3" 
d="M222 312v103h64q61 0 92.5 27t31.5 70q0 46 -30 74.5t-86 28.5t-85 -32.5t-31 -78.5h-119q2 94 67 157.5t169 63.5q108 0 170.5 -56.5t62.5 -149.5q0 -112 -103 -152q112 -40 112 -161q0 -95 -68 -158t-178 -63q-108 0 -175 61.5t-72 164.5h120q4 -52 36.5 -84.5
t90.5 -32.5q57 0 91 30.5t34 81.5q0 50 -33 78t-96 28h-65z" />
    <glyph glyph-name="four" unicode="4" 
d="M548 261v-106h-76v-155h-113v155h-340v91l327 464h126v-449h76zM359 547h-1l-203 -286h204v286z" />
    <glyph glyph-name="five" unicode="5" 
d="M64 298l59 412h381v-112h-289l-24 -172q16 16 49.5 31t75.5 15q111 0 167.5 -70.5t56.5 -167.5q0 -108 -69 -178.5t-180 -70.5q-105 0 -170.5 57.5t-73.5 153.5h123q7 -42 38 -71t83 -29q58 0 92.5 38t34.5 100q0 60 -34 96.5t-93 36.5q-35 0 -63 -16t-39 -29.5
t-15 -23.5h-110z" />
    <glyph glyph-name="six" unicode="6" 
d="M297 -15q-114 0 -183 73.5t-69 182.5q0 115 65 229t182 240h150q-156 -151 -224 -277q45 31 103 31q103 0 165 -68t62 -167q0 -102 -70.5 -173t-180.5 -71zM424 229q0 60 -35.5 98t-91.5 38t-91.5 -37.5t-35.5 -98.5t35.5 -99t91.5 -38t91.5 38t35.5 99z" />
    <glyph glyph-name="seven" unicode="7" 
d="M160 509h-118v201h512v-108q-107 -141 -156.5 -275t-78.5 -327h-127q56 370 223 600h-255v-91z" />
    <glyph glyph-name="eight" unicode="8" 
d="M291 -15q-114 0 -179 57t-65 150q0 54 26 101.5t76 73.5q-41 25 -62.5 67t-21.5 90q0 87 61 144t165 57q105 0 166 -57.5t61 -145.5q0 -48 -21.5 -89.5t-64.5 -65.5q50 -27 76 -74t26 -101q0 -93 -64.5 -150t-178.5 -57zM291 308q-55 0 -88 -30t-33 -78q0 -46 31 -77.5
t90 -31.5t90 31.5t31 77.5q0 48 -33 78t-88 30zM291 417q52 0 82.5 28t30.5 74q0 41 -29.5 71t-83.5 30t-83 -29t-29 -70q0 -46 29.5 -75t82.5 -29z" />
    <glyph glyph-name="nine" unicode="9" 
d="M285 725q114 0 183 -73.5t69 -182.5q0 -115 -65 -229t-182 -240h-150q157 153 224 276q-46 -31 -103 -31q-103 0 -165 68t-62 168q0 102 70.5 173t180.5 71zM158 481q0 -61 35.5 -99t91.5 -38t91.5 38t35.5 99t-35.5 99t-91.5 38t-91.5 -38t-35.5 -99z" />
    <glyph glyph-name="colon" unicode=":" horiz-adv-x="245" 
d="M123 -8q-36 0 -59.5 22.5t-23.5 58.5q0 35 23.5 58.5t59.5 23.5q35 0 58.5 -23.5t23.5 -58.5q0 -36 -23 -58.5t-59 -22.5zM123 363q-36 0 -59.5 23t-23.5 59q0 35 23.5 58.5t59.5 23.5q35 0 58.5 -23.5t23.5 -58.5q0 -36 -23.5 -59t-58.5 -23z" />
    <glyph glyph-name="semicolon" unicode=";" horiz-adv-x="248" 
d="M123 363q-36 0 -59.5 23t-23.5 59q0 35 23.5 58.5t59.5 23.5q35 0 58.5 -23.5t23.5 -58.5q0 -36 -23.5 -59t-58.5 -23zM70 139h133l-82 -270h-106z" />
    <glyph glyph-name="less" unicode="&#x3c;" 
d="M528 134v-118l-474 188v95l474 187v-118l-326 -117z" />
    <glyph glyph-name="equal" unicode="=" 
d="M552 210v-112h-522v112h522zM552 421v-113h-522v113h522z" />
    <glyph glyph-name="greater" unicode="&#x3e;" 
d="M54 16v118l326 117l-326 117v118l474 -187v-95z" />
    <glyph glyph-name="question" unicode="?" horiz-adv-x="525" 
d="M35 515q0 89 63 149.5t164 60.5q105 0 165 -58t60 -146q0 -46 -18.5 -86t-45 -67.5t-53 -51.5t-45 -49.5t-18.5 -50.5l2 -22h-116q-3 11 -3 23q0 42 18 78t44 61.5t52 49.5t44 51.5t18 57.5q0 46 -27.5 73.5t-76.5 27.5t-78 -30.5t-29 -78.5l5 -45h-120q-5 20 -5 53z
M256 -8q-35 0 -56.5 21.5t-21.5 55.5t22 55.5t56 21.5t56 -21.5t22 -55.5t-22 -55.5t-56 -21.5z" />
    <glyph glyph-name="at" unicode="@" horiz-adv-x="820" 
d="M488 278q0 82 -70 82q-46 0 -72.5 -36.5t-26.5 -95.5q0 -84 75 -84q44 0 69 40t25 94zM628 39h101q-51 -75 -134.5 -117.5t-179.5 -42.5q-171 0 -271 102t-100 267q0 162 107.5 271t271.5 109q158 0 256 -87.5t98 -226.5q0 -115 -61.5 -181t-140.5 -66q-67 0 -91 51
q-38 -51 -107 -51q-68 0 -108.5 43t-40.5 117q0 88 47 150.5t127 62.5q78 0 111 -54l9 40h80l-40 -201q0 -2 -2 -9.5t-3.5 -16t-1.5 -13.5q0 -19 10 -30.5t27 -11.5q45 0 74.5 46.5t29.5 118.5q0 116 -76 179t-199 63q-131 0 -210 -84.5t-79 -216.5q0 -138 78 -216t210 -78
q62 0 118 23.5t90 59.5z" />
    <glyph glyph-name="A" unicode="A" horiz-adv-x="680" 
d="M128 0h-128l275 710h129l276 -710h-132l-51 137h-318zM339 560h-2l-118 -313h238z" />
    <glyph glyph-name="B" unicode="B" horiz-adv-x="668" 
d="M382 0h-298v710h287q117 0 176 -53t59 -140q0 -56 -27.5 -97t-75.5 -61q53 -18 84 -60.5t31 -99.5q0 -94 -61 -146.5t-175 -52.5zM381 304h-178v-194h177q116 0 116 97q0 46 -30 71.5t-85 25.5zM372 600h-169v-185h169q112 0 112 92q0 44 -28 68.5t-84 24.5z" />
    <glyph glyph-name="C" unicode="C" horiz-adv-x="779" 
d="M45 356q0 163 99.5 266t255.5 103q133 0 226 -74t115 -200h-129q-18 74 -74.5 116t-137.5 42q-106 0 -166.5 -68.5t-60.5 -184.5t60.5 -185t166.5 -69q81 0 137.5 42t74.5 116h129q-22 -126 -115 -200t-226 -74q-156 0 -255.5 103t-99.5 267z" />
    <glyph glyph-name="D" unicode="D" horiz-adv-x="752" 
d="M325 0h-241v710h241q180 0 280.5 -97.5t100.5 -257.5t-100.5 -257.5t-280.5 -97.5zM578 355q0 114 -64.5 178.5t-192.5 64.5h-116v-486h116q128 0 192.5 64.5t64.5 178.5z" />
    <glyph glyph-name="E" unicode="E" horiz-adv-x="636" 
d="M583 112v-112h-499v710h499v-112h-378v-182h361v-112h-361v-192h378z" />
    <glyph glyph-name="F" unicode="F" horiz-adv-x="578" 
d="M205 0h-121v710h464v-112h-343v-182h326v-112h-326v-304z" />
    <glyph glyph-name="G" unicode="G" horiz-adv-x="810" 
d="M740 388v-388h-109v102q-34 -53 -95.5 -83.5t-142.5 -30.5q-153 0 -250.5 102.5t-97.5 265.5t99.5 266t255.5 103q130 0 221.5 -70t116.5 -191h-131q-19 69 -74.5 107t-132.5 38q-106 0 -166.5 -68.5t-60.5 -184.5t61.5 -187.5t165.5 -71.5q92 0 152 47.5t71 133.5h-190
v110h307z" />
    <glyph glyph-name="H" unicode="H" horiz-adv-x="747" 
d="M663 710v-710h-121v304h-337v-304h-121v710h121v-294h337v294h121z" />
    <glyph glyph-name="I" unicode="I" horiz-adv-x="289" 
d="M205 710v-710h-121v710h121z" />
    <glyph glyph-name="J" unicode="J" horiz-adv-x="584" 
d="M390 226v484h121v-480q0 -111 -65 -177t-176 -66q-109 0 -174.5 61t-65.5 168l3 46h122q-3 -17 -3 -46q0 -55 31.5 -88t86.5 -33q58 0 89 34.5t31 96.5z" />
    <glyph glyph-name="K" unicode="K" horiz-adv-x="696" 
d="M707 0h-151l-227 324l-124 -129v-195h-121v710h121v-362l329 362h159l-280 -295z" />
    <glyph glyph-name="L" unicode="L" horiz-adv-x="545" 
d="M534 112v-112h-450v710h121v-598h329z" />
    <glyph glyph-name="M" unicode="M" horiz-adv-x="839" 
d="M195 710l224 -294l225 294h111v-710h-119v519l-215 -278h-4l-214 278v-519h-119v710h111z" />
    <glyph glyph-name="N" unicode="N" horiz-adv-x="755" 
d="M203 510v-510h-119v710h123l345 -511v511h119v-710h-124z" />
    <glyph glyph-name="O" unicode="O" horiz-adv-x="824" 
d="M173 355q0 -114 67 -184t172 -70t172 70t67 184t-67 184t-172 70t-172 -70t-67 -184zM45 355q0 159 103 264.5t264 105.5t264 -105.5t103 -264.5t-103 -264.5t-264 -105.5t-264 105.5t-103 264.5z" />
    <glyph glyph-name="P" unicode="P" horiz-adv-x="643" 
d="M205 392h174q58 0 86.5 27t28.5 75t-29 76t-86 28h-174v-206zM205 280v-280h-121v710h294q121 0 179.5 -59.5t58.5 -156.5q0 -96 -60 -155t-178 -59h-173z" />
    <glyph glyph-name="Q" unicode="Q" horiz-adv-x="824" 
d="M779 355q0 -85 -31.5 -157.5t-89.5 -122.5l145 -201h-140l-100 140q-73 -29 -151 -29q-161 0 -264 105.5t-103 264.5t103 264.5t264 105.5t264 -105.5t103 -264.5zM651 355q0 114 -66.5 184t-172.5 70q-105 0 -172 -70t-67 -184q0 -113 67 -183.5t172 -70.5
q106 0 172.5 70.5t66.5 183.5z" />
    <glyph glyph-name="R" unicode="R" horiz-adv-x="673" 
d="M654 0h-142l-144 280h-163v-280h-121v710h312q114 0 174 -59t60 -156q0 -73 -35 -125.5t-104 -74.5zM508 495q0 47 -28 75t-83 28h-192v-206h192q55 0 83 28t28 75z" />
    <glyph glyph-name="S" unicode="S" horiz-adv-x="636" 
d="M312 95q73 0 113 25.5t40 73.5q0 35 -22 57t-57 33t-77 19.5t-84.5 21t-77.5 32.5t-57 60t-22 98q0 88 69.5 149t184.5 61q121 0 188.5 -65.5t69.5 -169.5h-119q-1 55 -37 90.5t-102 35.5q-63 0 -98.5 -25.5t-35.5 -72.5q0 -31 22 -51.5t57.5 -31t78 -19t85 -22t78 -35
t57.5 -62t22 -98.5q0 -97 -77 -155t-205 -58q-131 0 -197 69t-69 167h120q4 -59 43 -93t109 -34z" />
    <glyph glyph-name="T" unicode="T" horiz-adv-x="546" 
d="M539 710v-115h-206v-595h-121v595h-206v115h533z" />
    <glyph glyph-name="U" unicode="U" horiz-adv-x="744" 
d="M372 -15q-129 0 -212 79t-83 228v418h121v-423q0 -88 44.5 -139t129.5 -51t129.5 51t44.5 139v423h121v-418q0 -149 -83 -228t-212 -79z" />
    <glyph glyph-name="V" unicode="V" horiz-adv-x="687" 
d="M548 710h133l-275 -710h-126l-274 710h137l201 -550h2z" />
    <glyph glyph-name="W" unicode="W" horiz-adv-x="1044" 
d="M521 539l-159 -539h-130l-221 710h137l149 -539h2l158 539h133l158 -539h2l150 539h133l-221 -710h-130l-159 539h-2z" />
    <glyph glyph-name="X" unicode="X" horiz-adv-x="688" 
d="M344 458l186 252h149l-264 -349l277 -361h-153l-195 264l-196 -264h-153l277 361l-267 349h152z" />
    <glyph glyph-name="Y" unicode="Y" horiz-adv-x="630" 
d="M499 710h141l-265 -461v-249h-121v249l-265 461h140l184 -336h2z" />
    <glyph glyph-name="Z" unicode="Z" horiz-adv-x="659" 
d="M611 710v-106l-409 -492h413v-112h-571v106l409 492h-405v112h563z" />
    <glyph glyph-name="bracketleft" unicode="[" horiz-adv-x="325" 
d="M303 -57v-109h-231v916h231v-109h-120v-698h120z" />
    <glyph glyph-name="backslash" unicode="\" horiz-adv-x="453" 
d="M142 710l289 -710h-120l-289 710h120z" />
    <glyph glyph-name="bracketright" unicode="]" horiz-adv-x="325" 
d="M22 -166v109h120v698h-120v109h231v-916h-231z" />
    <glyph glyph-name="asciicircum" unicode="^" 
d="M526 250h-118l-117 307l-117 -307h-118l187 459h95z" />
    <glyph glyph-name="underscore" unicode="_" horiz-adv-x="500" 
d="M500 -89v-111h-500v111h500z" />
    <glyph glyph-name="grave" unicode="`" horiz-adv-x="356" 
d="M84 760h124l63 -171h-107z" />
    <glyph glyph-name="a" unicode="a" horiz-adv-x="577" 
d="M392 244l-138 -21q-97 -15 -97 -74q0 -68 92 -68q69 0 106 37t37 93v33zM225 -12q-92 0 -137 43t-45 114q0 136 199 164l150 21v8q0 95 -111 95q-97 0 -110 -77h-116q8 76 63.5 125.5t165.5 49.5q111 0 167.5 -51t56.5 -143v-239q0 -63 15 -98h-113q-1 0 -2.5 7.5
t-3 24.5t-1.5 36q-53 -80 -178 -80z" />
    <glyph glyph-name="b" unicode="b" horiz-adv-x="636" 
d="M191 451q53 80 166 80q112 0 176.5 -78t64.5 -194t-64.5 -193.5t-176.5 -77.5q-121 0 -175 86v-74h-110v750h119v-299zM187 259q0 -72 39.5 -119t106.5 -47q66 0 106 47.5t40 118.5q0 73 -40 120t-106 47q-67 0 -106.5 -47t-39.5 -120z" />
    <glyph glyph-name="c" unicode="c" horiz-adv-x="572" 
d="M38 259q0 115 73 193.5t186 78.5q107 0 170.5 -60.5t75.5 -139.5h-122q-11 43 -44.5 69t-80.5 26q-63 0 -101 -46.5t-38 -120.5t38 -120t101 -46q47 0 80.5 26t44.5 69h122q-12 -79 -75.5 -139.5t-170.5 -60.5q-113 0 -186 78.5t-73 192.5z" />
    <glyph glyph-name="d" unicode="d" horiz-adv-x="636" 
d="M444 451v299h119v-750h-110v74q-53 -86 -175 -86q-111 0 -175.5 77.5t-64.5 193.5t64.5 194t175.5 78q113 0 166 -80zM449 259q0 73 -39.5 120t-106.5 47q-66 0 -106 -47t-40 -120q0 -71 40 -118.5t106 -47.5q67 0 106.5 47t39.5 119z" />
    <glyph glyph-name="e" unicode="e" horiz-adv-x="588" 
d="M550 225h-395q7 -62 45 -98.5t100 -36.5q41 0 74 20t47 54h120q-24 -79 -89.5 -127.5t-154.5 -48.5q-116 0 -187.5 77t-71.5 195q0 115 72 193t186 78t184.5 -76.5t70.5 -192.5zM296 434q-56 0 -93 -33t-46 -88h276q-8 55 -44 88t-93 33z" />
    <glyph glyph-name="f" unicode="f" horiz-adv-x="321" 
d="M93 519v55q0 88 45 132t123 44l40 -3v-105q-6 2 -22 2q-36 0 -51.5 -17.5t-15.5 -59.5v-48h92v-95h-92v-424h-119v424h-83v95h83z" />
    <glyph glyph-name="g" unicode="g" horiz-adv-x="628" 
d="M450 445v74h110v-497q0 -106 -65.5 -173.5t-182.5 -67.5q-107 0 -167.5 55t-70.5 126h119q22 -79 121 -79q60 0 93.5 33.5t33.5 89.5v81q-52 -80 -164 -80q-108 0 -173.5 75.5t-65.5 186.5t65.5 186.5t173.5 75.5q119 0 173 -86zM446 269q0 69 -40 113t-105 44
q-64 0 -104 -44t-40 -113q0 -68 40 -112.5t104 -44.5q65 0 105 44.5t40 112.5z" />
    <glyph glyph-name="h" unicode="h" horiz-adv-x="603" 
d="M191 750v-287q47 68 151 68q92 0 142.5 -56t50.5 -149v-326h-119v311q0 55 -25.5 86.5t-77.5 31.5q-57 0 -89.5 -34t-32.5 -95v-300h-119v750h119z" />
    <glyph glyph-name="i" unicode="i" horiz-adv-x="263" 
d="M132 606q-33 0 -54 20.5t-21 52.5q0 33 21 54t54 21q32 0 53 -21t21 -54q0 -32 -21 -52.5t-53 -20.5zM72 0v519h119v-519h-119z" />
    <glyph glyph-name="j" unicode="j" horiz-adv-x="263" 
d="M132 606q-33 0 -54 20.5t-21 52.5q0 33 21 54t54 21q32 0 53 -21t21 -54q0 -32 -21 -52.5t-53 -20.5zM-10 -217v106q8 -1 18 -1q35 0 49.5 14t14.5 55v562h119v-562q0 -88 -46 -132t-124 -44z" />
    <glyph glyph-name="k" unicode="k" horiz-adv-x="564" 
d="M412 519h150l-201 -219l216 -300h-142l-153 222l-91 -98v-124h-119v750h119v-484z" />
    <glyph glyph-name="l" unicode="l" horiz-adv-x="263" 
d="M191 0h-119v750h119v-750z" />
    <glyph glyph-name="m" unicode="m" horiz-adv-x="925" 
d="M524 298v-298h-119v311q0 118 -98 118q-53 0 -84.5 -34t-31.5 -93v-302h-119v519h110v-69q19 35 58 58t97 23q108 0 156 -82q66 82 176 82q91 0 140 -56.5t49 -148.5v-326h-119v311q0 118 -98 118q-54 0 -85.5 -34.5t-31.5 -96.5z" />
    <glyph glyph-name="n" unicode="n" horiz-adv-x="603" 
d="M182 519v-69q18 34 59.5 57.5t100.5 23.5q92 0 142.5 -56t50.5 -149v-326h-119v311q0 55 -25.5 86.5t-77.5 31.5q-57 0 -89.5 -34t-32.5 -94v-301h-119v519h110z" />
    <glyph glyph-name="o" unicode="o" horiz-adv-x="615" 
d="M307 -12q-120 0 -194.5 79t-74.5 192t74.5 192.5t194.5 79.5q121 0 195.5 -79.5t74.5 -192.5t-74.5 -192t-195.5 -79zM157 259q0 -74 42.5 -120t107.5 -46q66 0 108.5 46t42.5 120q0 75 -42.5 121t-108.5 46q-65 0 -107.5 -46t-42.5 -121z" />
    <glyph glyph-name="p" unicode="p" horiz-adv-x="636" 
d="M191 68v-276h-119v727h110v-74q55 86 175 86q112 0 176.5 -78t64.5 -194t-64.5 -193.5t-176.5 -77.5q-114 0 -166 80zM187 259q0 -72 39.5 -119t106.5 -47q66 0 106 47.5t40 118.5q0 73 -40 121t-106 48q-67 0 -106.5 -47.5t-39.5 -121.5z" />
    <glyph glyph-name="q" unicode="q" horiz-adv-x="636" 
d="M444 68q-52 -80 -166 -80q-111 0 -175.5 77.5t-64.5 193.5t64.5 194t175.5 78q121 0 175 -86v74h110v-727h-119v276zM449 259q0 73 -39.5 120t-106.5 47q-66 0 -106 -47t-40 -120q0 -71 40 -118.5t106 -47.5q67 0 106.5 47t39.5 119z" />
    <glyph glyph-name="r" unicode="r" horiz-adv-x="366" 
d="M352 523v-111q-14 2 -27 2q-134 0 -134 -144v-270h-119v519h110v-72q44 77 153 77z" />
    <glyph glyph-name="s" unicode="s" horiz-adv-x="502" 
d="M250 -12q-107 0 -161 50t-59 128h115q2 -36 31 -58t81 -22q46 0 71 16t25 43q0 30 -30.5 44.5t-74.5 21.5t-88 18.5t-74.5 45.5t-30.5 93q0 68 56.5 115.5t149.5 47.5q53 0 93.5 -16.5t63 -43.5t34 -55t13.5 -57h-114q-3 31 -26.5 53t-66.5 22t-66 -16.5t-23 -45.5
q0 -27 30.5 -41t74.5 -21t88 -19.5t74.5 -47.5t30.5 -93q0 -70 -56.5 -116t-160.5 -46z" />
    <glyph glyph-name="t" unicode="t" horiz-adv-x="330" 
d="M305 106v-103q-22 -6 -62 -6q-152 0 -152 153v274h-79v95h79v135h119v-135h97v-95h-97v-262q0 -61 58 -61z" />
    <glyph glyph-name="u" unicode="u" horiz-adv-x="598" 
d="M407 220v299h119v-519h-110v67q-18 -34 -58.5 -56.5t-99.5 -22.5q-92 0 -141.5 55.5t-49.5 148.5v327h119v-311q0 -118 101 -118q56 0 88 33.5t32 96.5z" />
    <glyph glyph-name="v" unicode="v" horiz-adv-x="545" 
d="M273 141l144 378h123l-212 -519h-112l-211 519h126z" />
    <glyph glyph-name="w" unicode="w" horiz-adv-x="848" 
d="M542 0l-117 356h-1l-118 -356h-113l-181 519h123l116 -372l119 372h110l118 -373l117 373h121l-181 -519h-113z" />
    <glyph glyph-name="x" unicode="x" horiz-adv-x="540" 
d="M534 519l-197 -256l204 -263h-144l-127 174l-128 -174h-143l203 263l-197 256h143l122 -166l121 166h143z" />
    <glyph glyph-name="y" unicode="y" horiz-adv-x="545" 
d="M126 -208l88 212l-209 515h127l141 -376l143 376h124l-296 -727h-118z" />
    <glyph glyph-name="z" unicode="z" horiz-adv-x="539" 
d="M485 422l-286 -319h290v-103h-439v97l285 319h-281v103h431v-97z" />
    <glyph glyph-name="braceleft" unicode="{" horiz-adv-x="342" 
d="M275 -166q-166 0 -166 171v181q0 55 -51 55h-18v102h18q51 0 51 55v181q0 171 166 171l45 -3v-109q-18 3 -38 3q-34 0 -47.5 -16t-13.5 -50v-177q0 -74 -47 -106q47 -33 47 -107v-176q0 -34 13.5 -50t47.5 -16l38 3v-109q-18 -3 -45 -3z" />
    <glyph glyph-name="bar" unicode="|" horiz-adv-x="289" 
d="M203 0h-118v750h118v-750z" />
    <glyph glyph-name="braceright" unicode="}" horiz-adv-x="342" 
d="M67 -166l-45 3v109q18 -3 37 -3q34 0 48 16t14 50v176q0 74 46 107q-46 31 -46 106v177q0 34 -14 50t-48 16l-37 -3v109q18 3 45 3q165 0 165 -171v-181q0 -55 51 -55h19v-102h-19q-51 0 -51 -55v-181q0 -171 -165 -171z" />
    <glyph glyph-name="asciitilde" unicode="~" 
d="M390 178q-46 0 -106.5 23t-92.5 23q-28 0 -47.5 -12t-25.5 -24l-5 -12l-86 53q2 4 5 11t16.5 25.5t30.5 32t47.5 25t65.5 11.5q49 0 108 -23t91 -23q28 0 47.5 12t25.5 24l5 11l85 -53q-2 -4 -5 -11t-16.5 -25t-30.5 -32t-47 -25t-65 -11z" />
    <glyph glyph-name="exclamdown" unicode="&#xa1;" horiz-adv-x="270" 
d="M86 322h98l21 -510h-140zM135 530q34 0 56 -21.5t22 -55.5t-22 -56t-56 -22t-56 22t-22 56t21.5 55.5t56.5 21.5z" />
    <glyph glyph-name="cent" unicode="&#xa2;" 
d="M260 -14v106q-98 12 -158.5 86t-60.5 177t60.5 177t158.5 86v105h65v-104q90 -10 144 -68t65 -130h-122q-18 70 -87 86v-305q70 16 87 87h122q-11 -73 -65 -131t-144 -67v-105h-65zM159 355q0 -60 27 -101t74 -52v305q-46 -11 -73.5 -52t-27.5 -100z" />
    <glyph glyph-name="sterling" unicode="&#xa3;" 
d="M505 145l68 -74q-18 -22 -34.5 -37t-57.5 -32t-90 -17q-46 0 -114.5 23t-106.5 23q-26 0 -50 -12t-35 -25l-11 -12l-68 73q3 5 10.5 14t33 28t56.5 29q52 34 52 97q0 23 -10 51h-102v83h64q-38 82 -38 152q0 95 64 155.5t173 60.5q107 0 171 -61.5t64 -164.5l-2 -36h-120
q2 13 2 34q0 53 -29.5 86t-85.5 33q-54 0 -85 -30.5t-31 -82.5q0 -17 2 -33t8 -33t9.5 -26t12.5 -28.5t12 -25.5h168v-83h-144q4 -22 4 -35q0 -62 -32 -105q26 -4 82 -22t94 -18q60 0 96 51z" />
    <glyph glyph-name="currency" unicode="&#xa4;" horiz-adv-x="600" 
d="M110 252q0 51 24 93l-74 75l79 80l77 -78q38 21 85 21q45 0 83 -20l77 76l79 -79l-73 -74q25 -47 25 -94q0 -45 -21 -85l69 -68l-79 -80l-67 66q-45 -24 -93 -24q-51 0 -95 25l-67 -67l-79 80l70 70q-20 38 -20 83zM199 252q0 -42 30 -72t72 -30q41 0 71 30t30 72
q0 41 -30 71t-71 30q-42 0 -72 -30t-30 -71z" />
    <glyph glyph-name="yen" unicode="&#xa5;" 
d="M20 710h128l142 -267h2l140 267h130l-189 -340h112v-86h-133v-69h133v-86h-133v-129h-122v129h-134v86h134v69h-134v86h111z" />
    <glyph glyph-name="brokenbar" unicode="&#xa6;" horiz-adv-x="283" 
d="M85 749h112v-319h-112v319zM85 319h112v-319h-112v319z" />
    <glyph glyph-name="section" unicode="&#xa7;" horiz-adv-x="563" 
d="M37 290q0 57 29 93t65 52q-44 47 -44 121q0 72 55 120.5t151 48.5q57 0 98.5 -17t63.5 -45t32 -55t13 -57h-114q-4 32 -28 54t-71 22q-41 0 -63 -19.5t-22 -48.5q0 -50 63 -78l96 -43q85 -38 125.5 -81.5t40.5 -110.5q0 -57 -29 -93.5t-66 -53.5q45 -45 45 -119
q0 -72 -55 -120.5t-151 -48.5q-57 0 -98.5 17t-63.5 45t-32 55t-13 57h114q4 -32 28 -54t71 -22q41 0 63 19.5t22 47.5q0 52 -63 79l-96 43q-85 38 -125.5 81.5t-40.5 110.5zM321 333l-110 47q-65 -22 -65 -80q0 -33 23 -54t75 -43l108 -48q28 8 47 29t19 52q0 33 -22.5 54
t-74.5 43z" />
    <glyph glyph-name="dieresis" unicode="&#xa8;" horiz-adv-x="423" 
d="M126 612q-29 0 -47.5 18.5t-18.5 46.5q0 29 18.5 47.5t47.5 18.5t47.5 -18.5t18.5 -47.5q0 -28 -18.5 -46.5t-47.5 -18.5zM297 612q-29 0 -47.5 18t-18.5 47t18.5 47.5t47.5 18.5t47.5 -18.5t18.5 -47.5q0 -28 -18.5 -46.5t-47.5 -18.5z" />
    <glyph glyph-name="copyright" unicode="&#xa9;" horiz-adv-x="781" 
d="M25 356q0 158 104.5 263.5t264.5 105.5t264.5 -105.5t104.5 -263.5t-104.5 -263.5t-264.5 -105.5t-264.5 105.5t-104.5 263.5zM118 356q0 -125 76 -205t200 -80t200.5 79.5t76.5 205.5q0 125 -76.5 205t-200.5 80q-123 0 -199.5 -80t-76.5 -205zM208 356q0 84 53 140
t134 56q80 0 126.5 -45t52.5 -101h-92q-6 28 -28.5 47t-58.5 19q-46 0 -71.5 -31.5t-25.5 -84.5t25.5 -85t71.5 -32q36 0 58.5 19t28.5 48h92q-6 -56 -52.5 -101t-126.5 -45q-81 0 -134 56t-53 140z" />
    <glyph glyph-name="ordfeminine" unicode="&#xaa;" horiz-adv-x="412" 
d="M165 321q-64 0 -97 30.5t-33 81.5q0 102 161 123l77 10v7q0 26 -17 41t-49 15q-60 0 -71 -55h-94q5 53 45.5 94t121.5 41q156 0 156 -143v-165q0 -16 2.5 -34t4.5 -27l3 -10h-89q-5 11 -8 37q-38 -46 -113 -46zM128 435q0 -41 57 -41q41 0 64.5 26t23.5 66v12l-52 -8
q-93 -13 -93 -55z" />
    <glyph glyph-name="guillemotleft" unicode="&#xab;" horiz-adv-x="559" 
d="M50 259l109 215h118l-110 -215l110 -214h-118zM281 259l109 215h118l-110 -215l110 -214h-118z" />
    <glyph glyph-name="logicalnot" unicode="&#xac;" 
d="M30 315h522v-278h-113v166h-409v112z" />
    <glyph glyph-name="registered" unicode="&#xae;" horiz-adv-x="571" 
d="M289 197q-115 0 -189.5 75.5t-74.5 188.5q0 112 75 188t189 76q115 0 189.5 -76t74.5 -188q0 -113 -74.5 -188.5t-189.5 -75.5zM289 266q85 0 137 54.5t52 140.5t-52 140.5t-137 54.5t-137 -54.5t-52 -140.5t52 -140.5t137 -54.5zM405 331h-75l-35 75q-12 -1 -14 -1h-24
v-74h-66v259h99q55 0 83.5 -25t28.5 -67q0 -55 -44 -79zM297 528h-40v-61h40q37 0 37 31q0 30 -37 30z" />
    <glyph glyph-name="macron" unicode="&#xaf;" horiz-adv-x="410" 
d="M383 712v-92h-356v92h356z" />
    <glyph glyph-name="degree" unicode="&#xb0;" horiz-adv-x="384" 
d="M24 557q0 70 48.5 119t119.5 49t119 -49t48 -119t-48 -119t-119 -49t-119.5 49t-48.5 119zM111 557q0 -36 22 -60t59 -24q36 0 58 24t22 60t-22 60t-58 24q-37 0 -59 -24t-22 -60z" />
    <glyph glyph-name="plusminus" unicode="&#xb1;" 
d="M235 519h112v-127h205v-113h-205v-127h-112v127h-205v113h205v127zM552 112v-112h-522v112h522z" />
    <glyph glyph-name="twosuperior" unicode="&#xb2;" horiz-adv-x="390" 
d="M347 437h-303v71l168 145q41 36 41 79q0 26 -15 43t-44 17q-28 0 -44 -17t-16 -47l2 -21h-93q-1 10 -1 22q0 66 43 108t109 42q69 0 111 -41t42 -100q0 -46 -18 -79t-60 -67l-84 -68h162v-87z" />
    <glyph glyph-name="threesuperior" unicode="&#xb3;" horiz-adv-x="388" 
d="M142 613v78h46q30 0 46 14t16 39q0 22 -15 36t-42 14q-28 0 -43.5 -16.5t-16.5 -43.5h-91q2 62 42.5 103.5t108.5 41.5q71 0 109 -34.5t38 -92.5q0 -67 -56 -96q62 -25 62 -97q0 -58 -43.5 -95t-111.5 -37t-107.5 38t-42.5 102h90q5 -55 60 -55q25 0 40.5 14t15.5 36
q0 51 -63 51h-42z" />
    <glyph glyph-name="acute" unicode="&#xb4;" horiz-adv-x="356" 
d="M147 760h123l-79 -171h-107z" />
    <glyph glyph-name="mu" unicode="&#xb5;" horiz-adv-x="598" 
d="M407 220v299h119v-519h-110v67q-18 -34 -58.5 -56.5t-99.5 -22.5q-50 0 -82 20q0 -4 1 -43t1 -68v-85h-111v707h119v-311q0 -118 101 -118q56 0 88 33.5t32 96.5z" />
    <glyph glyph-name="paragraph" unicode="&#xb6;" horiz-adv-x="664" 
d="M273 -198v461q-116 0 -175.5 62t-59.5 161q0 97 63 160.5t172 63.5h306v-908h-114v794h-78v-794h-114z" />
    <glyph glyph-name="periodcentered" unicode="&#xb7;" horiz-adv-x="245" 
d="M123 179q-36 0 -59.5 22.5t-23.5 58.5q0 35 23.5 58.5t59.5 23.5q35 0 58.5 -23.5t23.5 -58.5q0 -36 -23 -58.5t-59 -22.5z" />
    <glyph glyph-name="cedilla" unicode="&#xb8;" horiz-adv-x="258" 
d="M29 -215l33 54q21 -20 56 -20q45 0 45 38t-44 38q-10 0 -18.5 -3.5t-12.5 -6.5l-4 -3l-39 23l33 109h59l-20 -64q6 3 25 3q40 0 66 -26t26 -67q0 -49 -31.5 -77t-79.5 -28q-29 0 -52.5 7.5t-32.5 15.5z" />
    <glyph glyph-name="onesuperior" unicode="&#xb9;" horiz-adv-x="286" 
d="M206 869v-433h-93v341h-85v68l102 24h76z" />
    <glyph glyph-name="ordmasculine" unicode="&#xba;" horiz-adv-x="432" 
d="M216 321q-84 0 -138 56t-54 138t54 138t138 56t138 -56t54 -138t-54 -138t-138 -56zM216 622q-43 0 -70 -30t-27 -77t27 -77t70 -30q42 0 69 30t27 77t-27 77t-69 30z" />
    <glyph glyph-name="guillemotright" unicode="&#xbb;" horiz-adv-x="559" 
d="M400 474l108 -215l-108 -214h-119l110 214l-110 215h119zM169 474l108 -215l-108 -214h-119l110 214l-110 215h119z" />
    <glyph glyph-name="onequarter" unicode="&#xbc;" horiz-adv-x="786" 
d="M108 274v341h-85v67l102 24h76v-432h-93zM135 0l392 710h90l-392 -710h-90zM409 90v76l193 267h93v-264h45v-79h-45v-90h-85v90h-201zM500 169h110v152z" />
    <glyph glyph-name="onehalf" unicode="&#xbd;" horiz-adv-x="833" 
d="M108 274v341h-85v67l102 24h76v-432h-93zM135 0l392 710h90l-392 -710h-90zM482 0v72l168 145q41 34 41 78q0 26 -15 43t-44 17q-28 0 -44 -17t-16 -46l2 -22h-93q-1 10 -1 23q0 66 43 107.5t109 41.5q69 0 111 -40.5t42 -100.5q0 -47 -18 -79.5t-60 -66.5l-84 -68h162
v-87h-303z" />
    <glyph glyph-name="threequarters" unicode="&#xbe;" horiz-adv-x="859" 
d="M46 402h90q5 -54 60 -54q25 0 40.5 14t15.5 36q0 26 -14 38.5t-49 12.5h-41v77h45q63 0 63 53q0 22 -15 36t-43 14t-43 -16.5t-17 -43.5h-91q2 62 42.5 103.5t109.5 41.5q71 0 109 -34.5t38 -92.5q0 -66 -57 -95q62 -25 62 -98q0 -57 -44 -94.5t-111 -37.5t-107 38
t-43 102zM209 0l392 710h89l-392 -710h-89zM482 90v76l194 267h93v-264h44v-79h-44v-90h-85v90h-202zM574 169h110v152z" />
    <glyph glyph-name="questiondown" unicode="&#xbf;" horiz-adv-x="525" 
d="M490 8q0 -89 -63 -149.5t-164 -60.5q-105 0 -165 58t-60 146q0 46 18.5 86t45 67.5t53 51.5t45 49.5t18.5 50.5l-2 22h116q3 -11 3 -23q0 -42 -18 -78t-44 -61.5t-52 -49.5t-44 -51.5t-18 -57.5q0 -46 27.5 -73.5t76.5 -27.5t78 30.5t29 78.5l-5 45h120q5 -20 5 -53z
M269 531q35 0 56.5 -21.5t21.5 -55.5t-22 -55.5t-56 -21.5t-56 21.5t-22 55.5t22 55.5t56 21.5z" />
    <glyph glyph-name="Agrave" unicode="&#xc0;" horiz-adv-x="683" 
d="M129 0h-128l275 710h129l276 -710h-132l-51 137h-318zM340 560h-2l-118 -313h238zM210 941h124l63 -171h-107z" />
    <glyph glyph-name="Aacute" unicode="&#xc1;" horiz-adv-x="683" 
d="M129 0h-128l275 710h129l276 -710h-132l-51 137h-318zM340 560h-2l-118 -313h238zM354 941h123l-79 -171h-107z" />
    <glyph glyph-name="Acircumflex" unicode="&#xc2;" horiz-adv-x="683" 
d="M129 0h-128l275 710h129l276 -710h-132l-51 137h-318zM340 560h-2l-118 -313h238zM191 851l152 79l153 -79v-96l-153 75l-152 -75v96z" />
    <glyph glyph-name="Atilde" unicode="&#xc3;" horiz-adv-x="683" 
d="M129 0h-128l275 710h129l276 -710h-132l-51 137h-318zM340 560h-2l-118 -313h238zM404 773q-32 0 -74.5 19t-63.5 19q-33 0 -38 -34h-74q3 54 34 87t84 33q32 0 75 -19t64 -19q31 0 36 34h75q-3 -54 -34 -87t-84 -33z" />
    <glyph glyph-name="Adieresis" unicode="&#xc4;" horiz-adv-x="683" 
d="M129 0h-128l275 710h129l276 -710h-132l-51 137h-318zM340 560h-2l-118 -313h238zM255 762q-29 0 -47.5 18.5t-18.5 46.5q0 29 18.5 47.5t47.5 18.5t47.5 -18.5t18.5 -47.5q0 -28 -18.5 -46.5t-47.5 -18.5zM426 762q-29 0 -47.5 18t-18.5 47t18.5 47.5t47.5 18.5
t47.5 -18.5t18.5 -47.5q0 -28 -18.5 -46.5t-47.5 -18.5z" />
    <glyph glyph-name="Aring" unicode="&#xc5;" horiz-adv-x="683" 
d="M129 0h-128l275 710h129l276 -710h-132l-51 137h-318zM340 560h-2l-118 -313h238zM291 860q0 -23 14 -38.5t38 -15.5t38 15.5t14 38.5t-14 38.5t-38 15.5t-38 -15.5t-14 -38.5zM223 860q0 50 34 84.5t86 34.5q53 0 86.5 -34.5t33.5 -84.5q0 -51 -33.5 -85.5t-86.5 -34.5
t-86.5 34.5t-33.5 85.5z" />
    <glyph glyph-name="AE" unicode="&#xc6;" horiz-adv-x="988" 
d="M115 0h-137l391 710h566v-112h-378v-182h361v-112h-361v-192h378v-112h-500v137h-246zM432 588l-186 -341h189v341h-3z" />
    <glyph glyph-name="Ccedilla" unicode="&#xc7;" horiz-adv-x="779" 
d="M45 356q0 163 99.5 266t255.5 103q133 0 226 -74t115 -200h-129q-18 74 -74.5 116t-137.5 42q-106 0 -166.5 -68.5t-60.5 -184.5t60.5 -185t166.5 -69q81 0 137.5 42t74.5 116h129q-21 -121 -107.5 -194t-212.5 -79l-11 -37q6 3 25 3q40 0 66 -26t26 -67q0 -49 -31.5 -77
t-79.5 -28q-29 0 -52.5 7.5t-32.5 15.5l-9 7l33 54q21 -20 56 -20q45 0 45 38t-44 38q-10 0 -18.5 -3.5t-12.5 -6.5l-4 -3l-39 23l25 83q-142 12 -230 113t-88 255z" />
    <glyph glyph-name="Egrave" unicode="&#xc8;" horiz-adv-x="636" 
d="M583 112v-112h-499v710h499v-112h-378v-182h361v-112h-361v-192h378zM208 941h124l63 -171h-107z" />
    <glyph glyph-name="Eacute" unicode="&#xc9;" horiz-adv-x="636" 
d="M583 112v-112h-499v710h499v-112h-378v-182h361v-112h-361v-192h378zM338 941h123l-79 -171h-107z" />
    <glyph glyph-name="Ecircumflex" unicode="&#xca;" horiz-adv-x="636" 
d="M583 112v-112h-499v710h499v-112h-378v-182h361v-112h-361v-192h378zM185 851l152 79l153 -79v-96l-153 75l-152 -75v96z" />
    <glyph glyph-name="Edieresis" unicode="&#xcb;" horiz-adv-x="636" 
d="M583 112v-112h-499v710h499v-112h-378v-182h361v-112h-361v-192h378zM247 762q-29 0 -47.5 18.5t-18.5 46.5q0 29 18.5 47.5t47.5 18.5t47.5 -18.5t18.5 -47.5q0 -28 -18.5 -46.5t-47.5 -18.5zM418 762q-29 0 -47.5 18t-18.5 47t18.5 47.5t47.5 18.5t47.5 -18.5
t18.5 -47.5q0 -28 -18.5 -46.5t-47.5 -18.5z" />
    <glyph glyph-name="Igrave" unicode="&#xcc;" horiz-adv-x="289" 
d="M205 710v-710h-121v710h121zM12 941h124l63 -171h-107z" />
    <glyph glyph-name="Iacute" unicode="&#xcd;" horiz-adv-x="289" 
d="M205 710v-710h-121v710h121zM154 941h123l-79 -171h-107z" />
    <glyph glyph-name="Icircumflex" unicode="&#xce;" horiz-adv-x="289" 
d="M205 710v-710h-121v710h121zM-8 854l152 79l153 -79v-96l-153 75l-152 -75v96z" />
    <glyph glyph-name="Idieresis" unicode="&#xcf;" horiz-adv-x="289" 
d="M205 710v-710h-121v710h121zM58 762q-29 0 -47.5 18.5t-18.5 46.5q0 29 18.5 47.5t47.5 18.5t47.5 -18.5t18.5 -47.5q0 -28 -18.5 -46.5t-47.5 -18.5zM229 762q-29 0 -47.5 18t-18.5 47t18.5 47.5t47.5 18.5t47.5 -18.5t18.5 -47.5q0 -28 -18.5 -46.5t-47.5 -18.5z" />
    <glyph glyph-name="Eth" unicode="&#xd0;" horiz-adv-x="752" 
d="M325 0h-241v299h-74v112h74v299h241q180 0 280.5 -97.5t100.5 -257.5t-100.5 -257.5t-280.5 -97.5zM578 355q0 113 -64.5 176.5t-192.5 63.5h-116v-184h177v-112h-177v-184h116q128 0 192.5 63.5t64.5 176.5z" />
    <glyph glyph-name="Ntilde" unicode="&#xd1;" horiz-adv-x="755" 
d="M203 510v-510h-119v710h123l345 -511v511h119v-710h-124zM448 766q-32 0 -74.5 19t-63.5 19q-33 0 -38 -34h-74q3 54 34 87t84 33q32 0 75 -19t64 -19q31 0 36 34h75q-3 -54 -34 -87t-84 -33z" />
    <glyph glyph-name="Ograve" unicode="&#xd2;" horiz-adv-x="824" 
d="M173 355q0 -114 67 -184t172 -70t172 70t67 184t-67 184t-172 70t-172 -70t-67 -184zM45 355q0 159 103 264.5t264 105.5t264 -105.5t103 -264.5t-103 -264.5t-264 -105.5t-264 105.5t-103 264.5zM290 941h124l63 -171h-107z" />
    <glyph glyph-name="Oacute" unicode="&#xd3;" horiz-adv-x="824" 
d="M173 355q0 -114 67 -184t172 -70t172 70t67 184t-67 184t-172 70t-172 -70t-67 -184zM45 355q0 159 103 264.5t264 105.5t264 -105.5t103 -264.5t-103 -264.5t-264 -105.5t-264 105.5t-103 264.5zM416 941h123l-79 -171h-107z" />
    <glyph glyph-name="Ocircumflex" unicode="&#xd4;" horiz-adv-x="824" 
d="M173 355q0 -114 67 -184t172 -70t172 70t67 184t-67 184t-172 70t-172 -70t-67 -184zM45 355q0 159 103 264.5t264 105.5t264 -105.5t103 -264.5t-103 -264.5t-264 -105.5t-264 105.5t-103 264.5zM260 857l152 79l153 -79v-96l-153 75l-152 -75v96z" />
    <glyph glyph-name="Otilde" unicode="&#xd5;" horiz-adv-x="824" 
d="M173 355q0 -114 67 -184t172 -70t172 70t67 184t-67 184t-172 70t-172 -70t-67 -184zM45 355q0 159 103 264.5t264 105.5t264 -105.5t103 -264.5t-103 -264.5t-264 -105.5t-264 105.5t-103 264.5zM478 773q-32 0 -74.5 19t-63.5 19q-33 0 -38 -34h-74q3 54 34 87t84 33
q32 0 75 -19t64 -19q31 0 36 34h75q-3 -54 -34 -87t-84 -33z" />
    <glyph glyph-name="Odieresis" unicode="&#xd6;" horiz-adv-x="824" 
d="M173 355q0 -114 67 -184t172 -70t172 70t67 184t-67 184t-172 70t-172 -70t-67 -184zM45 355q0 159 103 264.5t264 105.5t264 -105.5t103 -264.5t-103 -264.5t-264 -105.5t-264 105.5t-103 264.5zM328 769q-29 0 -47.5 18.5t-18.5 46.5q0 29 18.5 47.5t47.5 18.5
t47.5 -18.5t18.5 -47.5q0 -28 -18.5 -46.5t-47.5 -18.5zM499 769q-29 0 -47.5 18t-18.5 47t18.5 47.5t47.5 18.5t47.5 -18.5t18.5 -47.5q0 -28 -18.5 -46.5t-47.5 -18.5z" />
    <glyph glyph-name="multiply" unicode="&#xd7;" 
d="M51 420l79 80l161 -161l160 160l80 -79l-161 -161l161 -160l-80 -80l-160 161l-161 -161l-79 80l160 160z" />
    <glyph glyph-name="Oslash" unicode="&#xd8;" horiz-adv-x="824" 
d="M45 355q0 159 103 264.5t264 105.5q121 0 215 -65l77 88l54 -50l-75 -86q96 -106 96 -257q0 -159 -103 -264.5t-264 -105.5q-124 0 -218 66l-77 -89l-54 48l77 89q-95 103 -95 256zM651 355q0 96 -50 163l-327 -376q58 -41 138 -41q105 0 172 70t67 184zM173 355
q0 -97 48 -162l327 376q-58 40 -136 40q-105 0 -172 -70t-67 -184z" />
    <glyph glyph-name="Ugrave" unicode="&#xd9;" horiz-adv-x="739" 
d="M370 -15q-129 0 -212 79t-83 228v418h121v-423q0 -88 44.5 -139t129.5 -51t129.5 51t44.5 139v423h121v-418q0 -149 -83 -228t-212 -79zM243 941h124l63 -171h-107z" />
    <glyph glyph-name="Uacute" unicode="&#xda;" horiz-adv-x="739" 
d="M370 -15q-129 0 -212 79t-83 228v418h121v-423q0 -88 44.5 -139t129.5 -51t129.5 51t44.5 139v423h121v-418q0 -149 -83 -228t-212 -79zM372 942h123l-79 -171h-107z" />
    <glyph glyph-name="Ucircumflex" unicode="&#xdb;" horiz-adv-x="739" 
d="M370 -15q-129 0 -212 79t-83 228v418h121v-423q0 -88 44.5 -139t129.5 -51t129.5 51t44.5 139v423h121v-418q0 -149 -83 -228t-212 -79zM216 854l152 79l153 -79v-96l-153 75l-152 -75v96z" />
    <glyph glyph-name="Udieresis" unicode="&#xdc;" horiz-adv-x="739" 
d="M370 -15q-129 0 -212 79t-83 228v418h121v-423q0 -88 44.5 -139t129.5 -51t129.5 51t44.5 139v423h121v-418q0 -149 -83 -228t-212 -79zM285 762q-29 0 -47.5 18.5t-18.5 46.5q0 29 18.5 47.5t47.5 18.5t47.5 -18.5t18.5 -47.5q0 -28 -18.5 -46.5t-47.5 -18.5zM456 762
q-29 0 -47.5 18t-18.5 47t18.5 47.5t47.5 18.5t47.5 -18.5t18.5 -47.5q0 -28 -18.5 -46.5t-47.5 -18.5z" />
    <glyph glyph-name="Yacute" unicode="&#xdd;" horiz-adv-x="630" 
d="M499 710h141l-265 -461v-249h-121v249l-265 461h140l184 -336h2zM319 941h123l-79 -171h-107z" />
    <glyph glyph-name="Thorn" unicode="&#xde;" horiz-adv-x="643" 
d="M205 186v-186h-121v710h121v-92h173q121 0 179.5 -59.5t58.5 -156.5q0 -96 -60 -156t-178 -60h-173zM205 301h174q115 0 115 101t-115 101h-174v-202z" />
    <glyph glyph-name="germandbls" unicode="&#xdf;" horiz-adv-x="617" 
d="M581 154q0 -75 -51 -120t-130 -45q-90 0 -136 47.5t-48 112.5h110q1 -26 20.5 -43.5t52.5 -17.5q30 0 48.5 16.5t18.5 47.5q0 34 -51 69l-18 13q-36 26 -55 52t-19 63q0 41 34 99l7 11q24 37 24 66q0 37 -24.5 61.5t-67.5 24.5q-105 0 -105 -125v-486h-119v469
q0 118 58.5 184t166.5 66q92 0 149 -53.5t57 -133.5q0 -16 -2 -29t-7.5 -27t-8.5 -20.5t-12.5 -23t-11.5 -21.5l-6 -11q-15 -25 -15 -40q0 -21 26 -40l18 -13q47 -34 72 -68.5t25 -84.5z" />
    <glyph glyph-name="agrave" unicode="&#xe0;" horiz-adv-x="576" 
d="M392 244l-138 -21q-97 -15 -97 -74q0 -68 92 -68q69 0 106 37t37 93v33zM225 -12q-92 0 -137 43t-45 114q0 136 199 164l150 21v8q0 95 -111 95q-97 0 -110 -77h-116q8 76 63.5 125.5t165.5 49.5q111 0 167.5 -51t56.5 -143v-239q0 -63 15 -98h-113q-1 0 -2.5 7.5
t-3 24.5t-1.5 36q-53 -80 -178 -80zM160 760h124l63 -171h-107z" />
    <glyph glyph-name="aacute" unicode="&#xe1;" horiz-adv-x="576" 
d="M392 244l-138 -21q-97 -15 -97 -74q0 -68 92 -68q69 0 106 37t37 93v33zM225 -12q-92 0 -137 43t-45 114q0 136 199 164l150 21v8q0 95 -111 95q-97 0 -110 -77h-116q8 76 63.5 125.5t165.5 49.5q111 0 167.5 -51t56.5 -143v-239q0 -63 15 -98h-113q-1 0 -2.5 7.5
t-3 24.5t-1.5 36q-53 -80 -178 -80zM280 760h123l-79 -171h-107z" />
    <glyph glyph-name="acircumflex" unicode="&#xe2;" horiz-adv-x="576" 
d="M392 244l-138 -21q-97 -15 -97 -74q0 -68 92 -68q69 0 106 37t37 93v33zM225 -12q-92 0 -137 43t-45 114q0 136 199 164l150 21v8q0 95 -111 95q-97 0 -110 -77h-116q8 76 63.5 125.5t165.5 49.5q111 0 167.5 -51t56.5 -143v-239q0 -63 15 -98h-113q-1 0 -2.5 7.5
t-3 24.5t-1.5 36q-53 -80 -178 -80zM131 669l152 79l153 -79v-96l-153 75l-152 -75v96z" />
    <glyph glyph-name="atilde" unicode="&#xe3;" horiz-adv-x="576" 
d="M392 244l-138 -21q-97 -15 -97 -74q0 -68 92 -68q69 0 106 37t37 93v33zM225 -12q-92 0 -137 43t-45 114q0 136 199 164l150 21v8q0 95 -111 95q-97 0 -110 -77h-116q8 76 63.5 125.5t165.5 49.5q111 0 167.5 -51t56.5 -143v-239q0 -63 15 -98h-113q-1 0 -2.5 7.5
t-3 24.5t-1.5 36q-53 -80 -178 -80zM346 607q-32 0 -74.5 19t-63.5 19q-33 0 -38 -34h-74q3 54 34 87t84 33q32 0 75 -19t64 -19q31 0 36 34h75q-3 -54 -34 -87t-84 -33z" />
    <glyph glyph-name="adieresis" unicode="&#xe4;" horiz-adv-x="576" 
d="M392 244l-138 -21q-97 -15 -97 -74q0 -68 92 -68q69 0 106 37t37 93v33zM225 -12q-92 0 -137 43t-45 114q0 136 199 164l150 21v8q0 95 -111 95q-97 0 -110 -77h-116q8 76 63.5 125.5t165.5 49.5q111 0 167.5 -51t56.5 -143v-239q0 -63 15 -98h-113q-1 0 -2.5 7.5
t-3 24.5t-1.5 36q-53 -80 -178 -80zM194 612q-29 0 -47.5 18.5t-18.5 46.5q0 29 18.5 47.5t47.5 18.5t47.5 -18.5t18.5 -47.5q0 -28 -18.5 -46.5t-47.5 -18.5zM365 612q-29 0 -47.5 18t-18.5 47t18.5 47.5t47.5 18.5t47.5 -18.5t18.5 -47.5q0 -28 -18.5 -46.5t-47.5 -18.5z
" />
    <glyph glyph-name="aring" unicode="&#xe5;" horiz-adv-x="576" 
d="M392 244l-138 -21q-97 -15 -97 -74q0 -68 92 -68q69 0 106 37t37 93v33zM225 -12q-92 0 -137 43t-45 114q0 136 199 164l150 21v8q0 95 -111 95q-97 0 -110 -77h-116q8 76 63.5 125.5t165.5 49.5q111 0 167.5 -51t56.5 -143v-239q0 -63 15 -98h-113q-1 0 -2.5 7.5
t-3 24.5t-1.5 36q-53 -80 -178 -80zM230 695q0 -23 14 -38.5t38 -15.5t38 15.5t14 38.5t-14 38.5t-38 15.5t-38 -15.5t-14 -38.5zM162 695q0 50 34 84.5t86 34.5q53 0 86.5 -34.5t33.5 -84.5q0 -51 -33.5 -85.5t-86.5 -34.5t-86.5 34.5t-33.5 85.5z" />
    <glyph glyph-name="ae" unicode="&#xe6;" horiz-adv-x="942" 
d="M233 -12q-93 0 -141.5 43.5t-48.5 113.5q0 136 199 164l150 21v8q0 95 -111 95q-97 0 -110 -77h-116q8 76 63.5 125.5t165.5 49.5q130 0 186 -77q72 77 181 77q113 0 184 -76.5t71 -192.5l-2 -37h-394q6 -62 44 -98.5t100 -36.5q41 0 74 20t47 54h120
q-24 -79 -89.5 -127.5t-154.5 -48.5q-133 0 -207 102q-59 -102 -211 -102zM249 81q69 0 106 36.5t37 93.5v33l-138 -21q-97 -15 -97 -74q0 -68 92 -68zM650 434q-56 0 -92.5 -33t-45.5 -88h275q-8 55 -44 88t-93 33z" />
    <glyph glyph-name="ccedilla" unicode="&#xe7;" horiz-adv-x="572" 
d="M219 -212l31 50q22 -21 56 -21q20 0 32.5 10.5t12.5 29.5q0 18 -11 29t-32 11q-10 0 -18.5 -3.5t-12.5 -6.5l-4 -3l-38 23l24 83q-99 13 -160 88.5t-61 180.5q0 115 73 193.5t186 78.5q107 0 170.5 -60.5t75.5 -139.5h-122q-11 43 -44.5 69t-80.5 26q-64 0 -102 -46.5
t-38 -120.5t38 -120t102 -46q47 0 80.5 26t44.5 69h122q-12 -75 -70 -133.5t-156 -65.5l-11 -41q5 3 24 3q40 0 64.5 -26t24.5 -65q0 -45 -30 -73.5t-77 -28.5q-29 0 -52.5 7.5t-31.5 14.5z" />
    <glyph glyph-name="egrave" unicode="&#xe8;" horiz-adv-x="588" 
d="M550 225h-395q7 -62 45 -98.5t100 -36.5q41 0 74 20t47 54h120q-24 -79 -89.5 -127.5t-154.5 -48.5q-116 0 -187.5 77t-71.5 195q0 115 72 193t186 78t184.5 -76.5t70.5 -192.5zM296 434q-56 0 -93 -33t-46 -88h276q-8 55 -44 88t-93 33zM169 760h124l63 -171h-107z" />
    <glyph glyph-name="eacute" unicode="&#xe9;" horiz-adv-x="588" 
d="M550 225h-395q7 -62 45 -98.5t100 -36.5q41 0 74 20t47 54h120q-24 -79 -89.5 -127.5t-154.5 -48.5q-116 0 -187.5 77t-71.5 195q0 115 72 193t186 78t184.5 -76.5t70.5 -192.5zM296 434q-56 0 -93 -33t-46 -88h276q-8 55 -44 88t-93 33zM300 760h123l-79 -171h-107z" />
    <glyph glyph-name="ecircumflex" unicode="&#xea;" horiz-adv-x="588" 
d="M550 225h-395q7 -62 45 -98.5t100 -36.5q41 0 74 20t47 54h120q-24 -79 -89.5 -127.5t-154.5 -48.5q-116 0 -187.5 77t-71.5 195q0 115 72 193t186 78t184.5 -76.5t70.5 -192.5zM296 434q-56 0 -93 -33t-46 -88h276q-8 55 -44 88t-93 33zM147 669l152 79l153 -79v-96
l-153 75l-152 -75v96z" />
    <glyph glyph-name="edieresis" unicode="&#xeb;" horiz-adv-x="588" 
d="M550 225h-395q7 -62 45 -98.5t100 -36.5q41 0 74 20t47 54h120q-24 -79 -89.5 -127.5t-154.5 -48.5q-116 0 -187.5 77t-71.5 195q0 115 72 193t186 78t184.5 -76.5t70.5 -192.5zM296 434q-56 0 -93 -33t-46 -88h276q-8 55 -44 88t-93 33zM210 612q-29 0 -47.5 18.5
t-18.5 46.5q0 29 18.5 47.5t47.5 18.5t47.5 -18.5t18.5 -47.5q0 -28 -18.5 -46.5t-47.5 -18.5zM381 612q-29 0 -47.5 18t-18.5 47t18.5 47.5t47.5 18.5t47.5 -18.5t18.5 -47.5q0 -28 -18.5 -46.5t-47.5 -18.5z" />
    <glyph glyph-name="igrave" unicode="&#xec;" horiz-adv-x="263" 
d="M2 760h124l63 -171h-107zM191 519v-519h-119v519h119z" />
    <glyph glyph-name="iacute" unicode="&#xed;" horiz-adv-x="263" 
d="M140 760h123l-79 -171h-107zM191 519v-519h-119v519h119z" />
    <glyph glyph-name="icircumflex" unicode="&#xee;" horiz-adv-x="263" 
d="M191 519v-519h-119v519h119zM-21 669l152 79l153 -79v-96l-153 75l-152 -75v96z" />
    <glyph glyph-name="idieresis" unicode="&#xef;" horiz-adv-x="263" 
d="M47 612q-29 0 -47.5 18.5t-18.5 46.5q0 29 18.5 47.5t47.5 18.5t47.5 -18.5t18.5 -47.5q0 -28 -18.5 -46.5t-47.5 -18.5zM218 612q-29 0 -47.5 18t-18.5 47t18.5 47.5t47.5 18.5t47.5 -18.5t18.5 -47.5q0 -28 -18.5 -46.5t-47.5 -18.5zM191 519v-519h-119v519h119z" />
    <glyph glyph-name="eth" unicode="&#xf0;" horiz-adv-x="611" 
d="M204 560l-34 53l99 49q-37 24 -94 55l72 60q60 -31 113 -70l109 55l35 -53l-93 -46q162 -156 162 -387q0 -123 -74.5 -205.5t-193.5 -82.5q-118 0 -192.5 79t-74.5 192q0 115 68.5 193.5t182.5 78.5q49 0 86 -15.5t47 -29.5q-32 71 -99 133zM157 259q0 -71 42 -118.5
t106 -47.5q65 0 107.5 47.5t42.5 118.5q0 72 -42 119.5t-108 47.5q-64 0 -106 -47.5t-42 -119.5z" />
    <glyph glyph-name="ntilde" unicode="&#xf1;" horiz-adv-x="603" 
d="M182 519v-69q18 34 59.5 57.5t100.5 23.5q92 0 142.5 -56t50.5 -149v-326h-119v311q0 55 -25.5 86.5t-77.5 31.5q-57 0 -89.5 -34t-32.5 -94v-301h-119v519h110zM368 607q-32 0 -74.5 19t-63.5 19q-33 0 -38 -34h-74q3 54 34 87t84 33q32 0 75 -19t64 -19q31 0 36 34h75
q-3 -54 -34 -87t-84 -33z" />
    <glyph glyph-name="ograve" unicode="&#xf2;" horiz-adv-x="615" 
d="M307 -12q-120 0 -194.5 79t-74.5 192t74.5 192.5t194.5 79.5q121 0 195.5 -79.5t74.5 -192.5t-74.5 -192t-195.5 -79zM157 259q0 -74 42.5 -120t107.5 -46q66 0 108.5 46t42.5 120q0 75 -42.5 121t-108.5 46q-65 0 -107.5 -46t-42.5 -121zM176 760h124l63 -171h-107z" />
    <glyph glyph-name="oacute" unicode="&#xf3;" horiz-adv-x="615" 
d="M307 -12q-120 0 -194.5 79t-74.5 192t74.5 192.5t194.5 79.5q121 0 195.5 -79.5t74.5 -192.5t-74.5 -192t-195.5 -79zM157 259q0 -74 42.5 -120t107.5 -46q66 0 108.5 46t42.5 120q0 75 -42.5 121t-108.5 46q-65 0 -107.5 -46t-42.5 -121zM312 760h123l-79 -171h-107z
" />
    <glyph glyph-name="ocircumflex" unicode="&#xf4;" horiz-adv-x="615" 
d="M307 -12q-120 0 -194.5 79t-74.5 192t74.5 192.5t194.5 79.5q121 0 195.5 -79.5t74.5 -192.5t-74.5 -192t-195.5 -79zM157 259q0 -74 42.5 -120t107.5 -46q66 0 108.5 46t42.5 120q0 75 -42.5 121t-108.5 46q-65 0 -107.5 -46t-42.5 -121zM158 669l152 79l153 -79v-96
l-153 75l-152 -75v96z" />
    <glyph glyph-name="otilde" unicode="&#xf5;" horiz-adv-x="615" 
d="M307 -12q-120 0 -194.5 79t-74.5 192t74.5 192.5t194.5 79.5q121 0 195.5 -79.5t74.5 -192.5t-74.5 -192t-195.5 -79zM157 259q0 -74 42.5 -120t107.5 -46q66 0 108.5 46t42.5 120q0 75 -42.5 121t-108.5 46q-65 0 -107.5 -46t-42.5 -121zM370 607q-32 0 -74.5 19
t-63.5 19q-33 0 -38 -34h-74q3 54 34 87t84 33q32 0 75 -19t64 -19q31 0 36 34h75q-3 -54 -34 -87t-84 -33z" />
    <glyph glyph-name="odieresis" unicode="&#xf6;" horiz-adv-x="615" 
d="M307 -12q-120 0 -194.5 79t-74.5 192t74.5 192.5t194.5 79.5q121 0 195.5 -79.5t74.5 -192.5t-74.5 -192t-195.5 -79zM157 259q0 -74 42.5 -120t107.5 -46q66 0 108.5 46t42.5 120q0 75 -42.5 121t-108.5 46q-65 0 -107.5 -46t-42.5 -121zM222 612q-29 0 -47.5 18.5
t-18.5 46.5q0 29 18.5 47.5t47.5 18.5t47.5 -18.5t18.5 -47.5q0 -28 -18.5 -46.5t-47.5 -18.5zM393 612q-29 0 -47.5 18t-18.5 47t18.5 47.5t47.5 18.5t47.5 -18.5t18.5 -47.5q0 -28 -18.5 -46.5t-47.5 -18.5z" />
    <glyph glyph-name="divide" unicode="&#xf7;" 
d="M291 7q-33 0 -54 20.5t-21 53.5q0 32 21 53t54 21q32 0 53.5 -21t21.5 -53q0 -33 -21 -53.5t-54 -20.5zM291 363q-33 0 -54 21t-21 53q0 33 21 54t54 21q32 0 53.5 -21t21.5 -54q0 -32 -21.5 -53t-53.5 -21zM552 315v-112h-522v112h522z" />
    <glyph glyph-name="oslash" unicode="&#xf8;" horiz-adv-x="615" 
d="M307 -12q-89 0 -156 46l-54 -63l-45 40l54 63q-68 76 -68 185q0 113 74.5 192.5t194.5 79.5q88 0 155 -46l57 66l45 -40l-56 -65q69 -78 69 -187q0 -113 -74.5 -192t-195.5 -79zM458 259q0 55 -26 99l-208 -241q34 -24 83 -24q66 0 108.5 46t42.5 120zM157 259
q0 -56 25 -98l208 241q-38 24 -83 24q-65 0 -107.5 -46t-42.5 -121z" />
    <glyph glyph-name="ugrave" unicode="&#xf9;" horiz-adv-x="598" 
d="M407 220v299h119v-519h-110v67q-18 -34 -58.5 -56.5t-99.5 -22.5q-92 0 -141.5 55.5t-49.5 148.5v327h119v-311q0 -118 101 -118q56 0 88 33.5t32 96.5zM167 760h124l63 -171h-107z" />
    <glyph glyph-name="uacute" unicode="&#xfa;" horiz-adv-x="598" 
d="M407 220v299h119v-519h-110v67q-18 -34 -58.5 -56.5t-99.5 -22.5q-92 0 -141.5 55.5t-49.5 148.5v327h119v-311q0 -118 101 -118q56 0 88 33.5t32 96.5zM300 760h123l-79 -171h-107z" />
    <glyph glyph-name="ucircumflex" unicode="&#xfb;" horiz-adv-x="598" 
d="M407 220v299h119v-519h-110v67q-18 -34 -58.5 -56.5t-99.5 -22.5q-92 0 -141.5 55.5t-49.5 148.5v327h119v-311q0 -118 101 -118q56 0 88 33.5t32 96.5zM141 669l152 79l153 -79v-96l-153 75l-152 -75v96z" />
    <glyph glyph-name="udieresis" unicode="&#xfc;" horiz-adv-x="598" 
d="M407 220v299h119v-519h-110v67q-18 -34 -58.5 -56.5t-99.5 -22.5q-92 0 -141.5 55.5t-49.5 148.5v327h119v-311q0 -118 101 -118q56 0 88 33.5t32 96.5zM208 612q-29 0 -47.5 18.5t-18.5 46.5q0 29 18.5 47.5t47.5 18.5t47.5 -18.5t18.5 -47.5q0 -28 -18.5 -46.5
t-47.5 -18.5zM379 612q-29 0 -47.5 18t-18.5 47t18.5 47.5t47.5 18.5t47.5 -18.5t18.5 -47.5q0 -28 -18.5 -46.5t-47.5 -18.5z" />
    <glyph glyph-name="yacute" unicode="&#xfd;" horiz-adv-x="545" 
d="M126 -208l88 212l-209 515h127l141 -376l143 376h124l-296 -727h-118zM284 760h123l-79 -171h-107z" />
    <glyph glyph-name="thorn" unicode="&#xfe;" horiz-adv-x="632" 
d="M191 58v-266h-119v958h119v-290q53 71 161 71q113 0 177.5 -77t64.5 -195q0 -116 -64.5 -193.5t-177.5 -77.5q-104 0 -161 70zM190 264q0 -74 36.5 -122.5t104.5 -48.5q66 0 105 47.5t39 118.5t-39 118.5t-105 47.5q-65 0 -103 -46t-38 -115z" />
    <glyph glyph-name="ydieresis" unicode="&#xff;" horiz-adv-x="545" 
d="M126 -208l88 212l-209 515h127l141 -376l143 376h124l-296 -727h-118zM189 612q-29 0 -47.5 18.5t-18.5 46.5q0 29 18.5 47.5t47.5 18.5t47.5 -18.5t18.5 -47.5q0 -28 -18.5 -46.5t-47.5 -18.5zM360 612q-29 0 -47.5 18t-18.5 47t18.5 47.5t47.5 18.5t47.5 -18.5
t18.5 -47.5q0 -28 -18.5 -46.5t-47.5 -18.5z" />
    <glyph glyph-name="Amacron" unicode="&#x100;" horiz-adv-x="683" 
d="M129 0h-128l275 710h129l276 -710h-132l-51 137h-318zM340 560h-2l-118 -313h238zM518 862v-92h-356v92h356z" />
    <glyph glyph-name="amacron" unicode="&#x101;" horiz-adv-x="580" 
d="M392 244l-138 -21q-97 -15 -97 -74q0 -68 92 -68q69 0 106 37t37 93v33zM225 -12q-92 0 -137 43t-45 114q0 136 199 164l150 21v8q0 95 -111 95q-97 0 -110 -77h-116q8 76 63.5 125.5t165.5 49.5q111 0 167.5 -51t56.5 -143v-239q0 -63 15 -98h-113q-1 0 -2.5 7.5
t-3 24.5t-1.5 36q-53 -80 -178 -80zM462 712v-92h-356v92h356z" />
    <glyph glyph-name="Abreve" unicode="&#x102;" horiz-adv-x="683" 
d="M129 0h-128l275 710h129l276 -710h-132l-51 137h-318zM340 560h-2l-118 -313h238zM341 831q71 0 71 75h85q0 -72 -42 -112t-114 -40t-114.5 40t-42.5 112h86q0 -75 71 -75z" />
    <glyph glyph-name="abreve" unicode="&#x103;" horiz-adv-x="580" 
d="M392 244l-138 -21q-97 -15 -97 -74q0 -68 92 -68q69 0 106 37t37 93v33zM225 -12q-92 0 -137 43t-45 114q0 136 199 164l150 21v8q0 95 -111 95q-97 0 -110 -77h-116q8 76 63.5 125.5t165.5 49.5q111 0 167.5 -51t56.5 -143v-239q0 -63 15 -98h-113q-1 0 -2.5 7.5
t-3 24.5t-1.5 36q-53 -80 -178 -80zM283 665q71 0 71 75h85q0 -72 -42 -112t-114 -40t-114.5 40t-42.5 112h86q0 -75 71 -75z" />
    <glyph glyph-name="Aogonek" unicode="&#x104;" horiz-adv-x="683" 
d="M646 -119l29 -62q-36 -25 -78 -25q-49 0 -77.5 31.5t-28.5 79.5q0 69 49 118l-42 114h-318l-51 -137h-128l275 710h129l276 -710h-51q-56 -35 -56 -90q0 -18 10 -30t29 -12q11 0 33 13zM340 560h-2l-118 -313h238z" />
    <glyph glyph-name="aogonek" unicode="&#x105;" horiz-adv-x="580" 
d="M518 -119l29 -62q-36 -25 -78 -25q-49 0 -77.5 31.5t-28.5 79.5q0 66 43 112q-3 18 -3 51q-53 -80 -178 -80q-92 0 -137 43t-45 114q0 136 199 164l150 21v8q0 95 -111 95q-97 0 -110 -77h-116q8 76 63.5 125.5t165.5 49.5q111 0 167.5 -51t56.5 -143v-239q0 -63 15 -98
h-21q-56 -35 -56 -90q0 -18 10 -30t29 -12q11 0 33 13zM392 244l-138 -21q-97 -15 -97 -74q0 -68 92 -68q69 0 106 37t37 93v33z" />
    <glyph glyph-name="Cacute" unicode="&#x106;" horiz-adv-x="779" 
d="M45 356q0 163 99.5 266t255.5 103q133 0 226 -74t115 -200h-129q-18 74 -74.5 116t-137.5 42q-106 0 -166.5 -68.5t-60.5 -184.5t60.5 -185t166.5 -69q81 0 137.5 42t74.5 116h129q-22 -126 -115 -200t-226 -74q-156 0 -255.5 103t-99.5 267zM401 941h123l-79 -171h-107z
" />
    <glyph glyph-name="cacute" unicode="&#x107;" horiz-adv-x="572" 
d="M38 259q0 115 73 193.5t186 78.5q107 0 170.5 -60.5t75.5 -139.5h-122q-11 43 -44.5 69t-80.5 26q-63 0 -101 -46.5t-38 -120.5t38 -120t101 -46q47 0 80.5 26t44.5 69h122q-12 -79 -75.5 -139.5t-170.5 -60.5q-113 0 -186 78.5t-73 192.5zM295 760h123l-79 -171h-107z
" />
    <glyph glyph-name="Ccircumflex" unicode="&#x108;" horiz-adv-x="779" 
d="M45 356q0 163 99.5 266t255.5 103q133 0 226 -74t115 -200h-129q-18 74 -74.5 116t-137.5 42q-106 0 -166.5 -68.5t-60.5 -184.5t60.5 -185t166.5 -69q81 0 137.5 42t74.5 116h129q-22 -126 -115 -200t-226 -74q-156 0 -255.5 103t-99.5 267zM240 851l152 79l153 -79v-96
l-153 75l-152 -75v96z" />
    <glyph glyph-name="ccircumflex" unicode="&#x109;" horiz-adv-x="572" 
d="M38 259q0 115 73 193.5t186 78.5q107 0 170.5 -60.5t75.5 -139.5h-122q-11 43 -44.5 69t-80.5 26q-63 0 -101 -46.5t-38 -120.5t38 -120t101 -46q47 0 80.5 26t44.5 69h122q-12 -79 -75.5 -139.5t-170.5 -60.5q-113 0 -186 78.5t-73 192.5zM146 669l152 79l153 -79v-96
l-153 75l-152 -75v96z" />
    <glyph glyph-name="Cdotaccent" unicode="&#x10a;" horiz-adv-x="779" 
d="M45 356q0 163 99.5 266t255.5 103q133 0 226 -74t115 -200h-129q-18 74 -74.5 116t-137.5 42q-106 0 -166.5 -68.5t-60.5 -184.5t60.5 -185t166.5 -69q81 0 137.5 42t74.5 116h129q-22 -126 -115 -200t-226 -74q-156 0 -255.5 103t-99.5 267zM399 765q-33 0 -54 20.5
t-21 52.5t21 53t54 21q32 0 53 -21t21 -53t-21 -52.5t-53 -20.5z" />
    <glyph glyph-name="cdotaccent" unicode="&#x10b;" horiz-adv-x="572" 
d="M38 259q0 115 73 193.5t186 78.5q107 0 170.5 -60.5t75.5 -139.5h-122q-11 43 -44.5 69t-80.5 26q-63 0 -101 -46.5t-38 -120.5t38 -120t101 -46q47 0 80.5 26t44.5 69h122q-12 -79 -75.5 -139.5t-170.5 -60.5q-113 0 -186 78.5t-73 192.5zM295 604q-33 0 -54 20.5
t-21 52.5t21 53t54 21q32 0 53 -21t21 -53t-21 -52.5t-53 -20.5z" />
    <glyph glyph-name="Ccaron" unicode="&#x10c;" horiz-adv-x="779" 
d="M45 356q0 163 99.5 266t255.5 103q133 0 226 -74t115 -200h-129q-18 74 -74.5 116t-137.5 42q-106 0 -166.5 -68.5t-60.5 -184.5t60.5 -185t166.5 -69q81 0 137.5 42t74.5 116h129q-22 -126 -115 -200t-226 -74q-156 0 -255.5 103t-99.5 267zM400 755l-152 79v96l152 -75
l153 75v-96z" />
    <glyph glyph-name="ccaron" unicode="&#x10d;" horiz-adv-x="572" 
d="M38 259q0 115 73 193.5t186 78.5q107 0 170.5 -60.5t75.5 -139.5h-122q-11 43 -44.5 69t-80.5 26q-63 0 -101 -46.5t-38 -120.5t38 -120t101 -46q47 0 80.5 26t44.5 69h122q-12 -79 -75.5 -139.5t-170.5 -60.5q-113 0 -186 78.5t-73 192.5zM296 570l-152 79v96l152 -75
l153 75v-96z" />
    <glyph glyph-name="Dcaron" unicode="&#x10e;" horiz-adv-x="752" 
d="M325 0h-241v710h241q180 0 280.5 -97.5t100.5 -257.5t-100.5 -257.5t-280.5 -97.5zM578 355q0 114 -64.5 178.5t-192.5 64.5h-116v-486h116q128 0 192.5 64.5t64.5 178.5zM336 755l-152 79v96l152 -75l153 75v-96z" />
    <glyph glyph-name="dcaron" unicode="&#x10f;" horiz-adv-x="636" 
d="M444 451v299h119v-750h-110v74q-53 -86 -175 -86q-111 0 -175.5 77.5t-64.5 193.5t64.5 194t175.5 78q113 0 166 -80zM449 259q0 73 -39.5 120t-106.5 47q-66 0 -106 -47t-40 -120q0 -71 40 -118.5t106 -47.5q67 0 106.5 47t39.5 119zM648 746l101 6q7 -19 7 -53
q0 -33 -10.5 -62t-25.5 -46.5t-30 -31t-26 -19.5l-10 -5l-59 70q3 1 7 3.5t14.5 11t19 18t15 25.5t6.5 34q0 12 -2.5 24.5t-4.5 18.5z" />
    <glyph glyph-name="Dcroat" unicode="&#x110;" horiz-adv-x="752" 
d="M325 0h-241v299h-74v112h74v299h241q180 0 280.5 -97.5t100.5 -257.5t-100.5 -257.5t-280.5 -97.5zM578 355q0 113 -64.5 176.5t-192.5 63.5h-116v-184h177v-112h-177v-184h116q128 0 192.5 63.5t64.5 176.5z" />
    <glyph glyph-name="dcroat" unicode="&#x111;" horiz-adv-x="636" 
d="M444 451v131h-146v93h146v75h119v-75h69v-93h-69v-582h-110v74q-53 -86 -175 -86q-111 0 -175.5 77.5t-64.5 193.5t64.5 194t175.5 78q113 0 166 -80zM449 259q0 73 -39.5 120t-106.5 47q-66 0 -106 -47t-40 -120q0 -71 40 -118.5t106 -47.5q67 0 106.5 47t39.5 119z" />
    <glyph glyph-name="Emacron" unicode="&#x112;" horiz-adv-x="636" 
d="M583 112v-112h-499v710h499v-112h-378v-182h361v-112h-361v-192h378zM512 862v-92h-356v92h356z" />
    <glyph glyph-name="emacron" unicode="&#x113;" horiz-adv-x="588" 
d="M550 225h-395q7 -62 45 -98.5t100 -36.5q41 0 74 20t47 54h120q-24 -79 -89.5 -127.5t-154.5 -48.5q-116 0 -187.5 77t-71.5 195q0 115 72 193t186 78t184.5 -76.5t70.5 -192.5zM296 434q-56 0 -93 -33t-46 -88h276q-8 55 -44 88t-93 33zM476 712v-92h-356v92h356z" />
    <glyph glyph-name="Ebreve" unicode="&#x114;" horiz-adv-x="636" 
d="M583 112v-112h-499v710h499v-112h-378v-182h361v-112h-361v-192h378zM330 831q71 0 71 75h85q0 -72 -42 -112t-114 -40t-114.5 40t-42.5 112h86q0 -75 71 -75z" />
    <glyph glyph-name="ebreve" unicode="&#x115;" horiz-adv-x="588" 
d="M550 225h-395q7 -62 45 -98.5t100 -36.5q41 0 74 20t47 54h120q-24 -79 -89.5 -127.5t-154.5 -48.5q-116 0 -187.5 77t-71.5 195q0 115 72 193t186 78t184.5 -76.5t70.5 -192.5zM296 434q-56 0 -93 -33t-46 -88h276q-8 55 -44 88t-93 33zM295 665q71 0 71 75h85
q0 -72 -42 -112t-114 -40t-114.5 40t-42.5 112h86q0 -75 71 -75z" />
    <glyph glyph-name="Edotaccent" unicode="&#x116;" horiz-adv-x="636" 
d="M583 112v-112h-499v710h499v-112h-378v-182h361v-112h-361v-192h378zM337 766q-33 0 -54 20.5t-21 52.5t21 53t54 21q32 0 53 -21t21 -53t-21 -52.5t-53 -20.5z" />
    <glyph glyph-name="edotaccent" unicode="&#x117;" horiz-adv-x="588" 
d="M550 225h-395q7 -62 45 -98.5t100 -36.5q41 0 74 20t47 54h120q-24 -79 -89.5 -127.5t-154.5 -48.5q-116 0 -187.5 77t-71.5 195q0 115 72 193t186 78t184.5 -76.5t70.5 -192.5zM296 434q-56 0 -93 -33t-46 -88h276q-8 55 -44 88t-93 33zM295 604q-33 0 -54 20.5
t-21 52.5t21 53t54 21q32 0 53 -21t21 -53t-21 -52.5t-53 -20.5z" />
    <glyph glyph-name="Eogonek" unicode="&#x118;" horiz-adv-x="636" 
d="M542 -119l29 -62q-36 -25 -78 -25q-49 0 -77.5 31.5t-28.5 79.5q0 54 29 95h-332v710h499v-112h-378v-182h361v-112h-361v-192h378v-112h-57q-56 -35 -56 -90q0 -18 10 -30t29 -12q11 0 33 13z" />
    <glyph glyph-name="eogonek" unicode="&#x119;" horiz-adv-x="588" 
d="M375 -120l29 -62q-36 -25 -78 -25q-49 0 -77.5 31.5t-28.5 79.5q0 51 25 89q-94 16 -150.5 89.5t-56.5 177.5q0 115 72 193t186 78t184.5 -76.5t70.5 -192.5l-1 -37h-395q7 -62 45 -98.5t100 -36.5q41 0 74 20t47 54h120q-20 -66 -70 -111.5t-120 -58.5q-48 -35 -48 -85
q0 -18 10 -30t29 -12q11 0 33 13zM296 434q-56 0 -93 -33t-46 -88h276q-8 55 -44 88t-93 33z" />
    <glyph glyph-name="Ecaron" unicode="&#x11a;" horiz-adv-x="636" 
d="M583 112v-112h-499v710h499v-112h-378v-182h361v-112h-361v-192h378zM331 755l-152 79v96l152 -75l153 75v-96z" />
    <glyph glyph-name="ecaron" unicode="&#x11b;" horiz-adv-x="588" 
d="M550 225h-395q7 -62 45 -98.5t100 -36.5q41 0 74 20t47 54h120q-24 -79 -89.5 -127.5t-154.5 -48.5q-116 0 -187.5 77t-71.5 195q0 115 72 193t186 78t184.5 -76.5t70.5 -192.5zM296 434q-56 0 -93 -33t-46 -88h276q-8 55 -44 88t-93 33zM295 570l-152 79v96l152 -75
l153 75v-96z" />
    <glyph glyph-name="Gcircumflex" unicode="&#x11c;" horiz-adv-x="810" 
d="M740 388v-388h-109v102q-34 -53 -95.5 -83.5t-142.5 -30.5q-153 0 -250.5 102.5t-97.5 265.5t99.5 266t255.5 103q130 0 221.5 -70t116.5 -191h-131q-19 69 -74.5 107t-132.5 38q-106 0 -166.5 -68.5t-60.5 -184.5t61.5 -187.5t165.5 -71.5q92 0 152 47.5t71 133.5h-190
v110h307zM248 854l152 79l153 -79v-96l-153 75l-152 -75v96z" />
    <glyph glyph-name="gcircumflex" unicode="&#x11d;" horiz-adv-x="628" 
d="M450 445v74h110v-497q0 -106 -65.5 -173.5t-182.5 -67.5q-107 0 -167.5 55t-70.5 126h119q22 -79 121 -79q60 0 93.5 33.5t33.5 89.5v81q-52 -80 -164 -80q-108 0 -173.5 75.5t-65.5 186.5t65.5 186.5t173.5 75.5q119 0 173 -86zM446 269q0 69 -40 113t-105 44
q-64 0 -104 -44t-40 -113q0 -68 40 -112.5t104 -44.5q65 0 105 44.5t40 112.5zM166 669l152 79l153 -79v-96l-153 75l-152 -75v96z" />
    <glyph glyph-name="Gbreve" unicode="&#x11e;" horiz-adv-x="810" 
d="M740 388v-388h-109v102q-34 -53 -95.5 -83.5t-142.5 -30.5q-153 0 -250.5 102.5t-97.5 265.5t99.5 266t255.5 103q130 0 221.5 -70t116.5 -191h-131q-19 69 -74.5 107t-132.5 38q-106 0 -166.5 -68.5t-60.5 -184.5t61.5 -187.5t165.5 -71.5q92 0 152 47.5t71 133.5h-190
v110h307zM399 832q71 0 71 75h85q0 -72 -42 -112t-114 -40t-114.5 40t-42.5 112h86q0 -75 71 -75z" />
    <glyph glyph-name="gbreve" unicode="&#x11f;" horiz-adv-x="628" 
d="M450 445v74h110v-497q0 -106 -65.5 -173.5t-182.5 -67.5q-107 0 -167.5 55t-70.5 126h119q22 -79 121 -79q60 0 93.5 33.5t33.5 89.5v81q-52 -80 -164 -80q-108 0 -173.5 75.5t-65.5 186.5t65.5 186.5t173.5 75.5q119 0 173 -86zM446 269q0 69 -40 113t-105 44
q-64 0 -104 -44t-40 -113q0 -68 40 -112.5t104 -44.5q65 0 105 44.5t40 112.5zM325 665q71 0 71 75h85q0 -72 -42 -112t-114 -40t-114.5 40t-42.5 112h86q0 -75 71 -75z" />
    <glyph glyph-name="Gdotaccent" unicode="&#x120;" horiz-adv-x="810" 
d="M740 388v-388h-109v102q-34 -53 -95.5 -83.5t-142.5 -30.5q-153 0 -250.5 102.5t-97.5 265.5t99.5 266t255.5 103q130 0 221.5 -70t116.5 -191h-131q-19 69 -74.5 107t-132.5 38q-106 0 -166.5 -68.5t-60.5 -184.5t61.5 -187.5t165.5 -71.5q92 0 152 47.5t71 133.5h-190
v110h307zM402 765q-33 0 -54 20.5t-21 52.5t21 53t54 21q32 0 53 -21t21 -53t-21 -52.5t-53 -20.5z" />
    <glyph glyph-name="gdotaccent" unicode="&#x121;" horiz-adv-x="628" 
d="M450 445v74h110v-497q0 -106 -65.5 -173.5t-182.5 -67.5q-107 0 -167.5 55t-70.5 126h119q22 -79 121 -79q60 0 93.5 33.5t33.5 89.5v81q-52 -80 -164 -80q-108 0 -173.5 75.5t-65.5 186.5t65.5 186.5t173.5 75.5q119 0 173 -86zM446 269q0 69 -40 113t-105 44
q-64 0 -104 -44t-40 -113q0 -68 40 -112.5t104 -44.5q65 0 105 44.5t40 112.5zM324 604q-33 0 -54 20.5t-21 52.5t21 53t54 21q32 0 53 -21t21 -53t-21 -52.5t-53 -20.5z" />
    <glyph glyph-name="Gcommaaccent" unicode="&#x122;" horiz-adv-x="810" 
d="M740 388v-388h-109v102q-34 -53 -95.5 -83.5t-142.5 -30.5q-153 0 -250.5 102.5t-97.5 265.5t99.5 266t255.5 103q130 0 221.5 -70t116.5 -191h-131q-19 69 -74.5 107t-132.5 38q-106 0 -166.5 -68.5t-60.5 -184.5t61.5 -187.5t165.5 -71.5q92 0 152 47.5t71 133.5h-190
v110h307zM350 -50l101 6q7 -19 7 -53q0 -33 -10.5 -62t-25.5 -46.5t-30 -31t-26 -19.5l-10 -5l-59 70q3 1 7 3.5t14.5 11t19 18t15 25.5t6.5 34q0 12 -2.5 24.5t-4.5 18.5z" />
    <glyph glyph-name="gcommaaccent" unicode="&#x123;" horiz-adv-x="628" 
d="M450 445v74h110v-497q0 -106 -65.5 -173.5t-182.5 -67.5q-107 0 -167.5 55t-70.5 126h119q22 -79 121 -79q60 0 93.5 33.5t33.5 89.5v81q-52 -80 -164 -80q-108 0 -173.5 75.5t-65.5 186.5t65.5 186.5t173.5 75.5q119 0 173 -86zM446 269q0 69 -40 113t-105 44
q-64 0 -104 -44t-40 -113q0 -68 40 -112.5t104 -44.5q65 0 105 44.5t40 112.5zM368 611l-101 -6q-7 19 -7 53q0 33 10.5 62t25.5 46.5t30 31t26 18.5l10 6l59 -70q-3 -1 -7 -3.5t-14.5 -11t-19 -18t-15 -25.5t-6.5 -34q0 -12 2.5 -24.5t4.5 -18.5z" />
    <glyph glyph-name="Hcircumflex" unicode="&#x124;" horiz-adv-x="747" 
d="M663 710v-710h-121v304h-337v-304h-121v710h121v-294h337v294h121zM220 851l152 79l153 -79v-96l-153 75l-152 -75v96z" />
    <glyph glyph-name="hcircumflex" unicode="&#x125;" horiz-adv-x="603" 
d="M191 750v-287q47 68 151 68q92 0 142.5 -56t50.5 -149v-326h-119v311q0 55 -25.5 86.5t-77.5 31.5q-57 0 -89.5 -34t-32.5 -95v-300h-119v750h119zM-19 848l152 79l153 -79v-96l-153 75l-152 -75v96z" />
    <glyph glyph-name="Hbar" unicode="&#x126;" horiz-adv-x="747" 
d="M663 710v-111h60v-93h-60v-506h-121v304h-337v-304h-121v506h-60v93h60v111h121v-111h337v111h121zM205 416h337v90h-337v-90z" />
    <glyph glyph-name="hbar" unicode="&#x127;" horiz-adv-x="603" 
d="M191 750v-75h147v-93h-147v-119q47 68 151 68q92 0 142.5 -56t50.5 -149v-326h-119v311q0 55 -25.5 86.5t-77.5 31.5q-57 0 -89.5 -34t-32.5 -95v-300h-119v582h-69v93h69v75h119z" />
    <glyph glyph-name="Itilde" unicode="&#x128;" horiz-adv-x="289" 
d="M205 710v-710h-121v710h121zM211 766q-32 0 -74.5 19t-63.5 19q-33 0 -38 -34h-74q3 54 34 87t84 33q32 0 75 -19t64 -19q31 0 36 34h75q-3 -54 -34 -87t-84 -33z" />
    <glyph glyph-name="itilde" unicode="&#x129;" horiz-adv-x="263" 
d="M198 607q-32 0 -74.5 19t-63.5 19q-33 0 -38 -34h-74q3 54 34 87t84 33q32 0 75 -19t64 -19q31 0 36 34h75q-3 -54 -34 -87t-84 -33zM191 519v-519h-119v519h119z" />
    <glyph glyph-name="Imacron" unicode="&#x12a;" horiz-adv-x="289" 
d="M205 710v-710h-121v710h121zM323 862v-92h-356v92h356z" />
    <glyph glyph-name="imacron" unicode="&#x12b;" horiz-adv-x="263" 
d="M310 712v-92h-356v92h356zM191 519v-519h-119v519h119z" />
    <glyph glyph-name="Ibreve" unicode="&#x12c;" horiz-adv-x="289" 
d="M205 710v-710h-121v710h121zM145 832q71 0 71 75h85q0 -72 -42 -112t-114 -40t-114.5 40t-42.5 112h86q0 -75 71 -75z" />
    <glyph glyph-name="ibreve" unicode="&#x12d;" horiz-adv-x="263" 
d="M132 665q71 0 71 75h85q0 -72 -42 -112t-114 -40t-114.5 40t-42.5 112h86q0 -75 71 -75zM191 519v-519h-119v519h119z" />
    <glyph glyph-name="Iogonek" unicode="&#x12e;" horiz-adv-x="289" 
d="M176 -119l29 -62q-36 -25 -78 -25q-49 0 -77.5 31.5t-28.5 79.5q0 80 63 130v675h121v-710h-45q-56 -35 -56 -90q0 -18 10 -30t29 -12q11 0 33 13z" />
    <glyph glyph-name="iogonek" unicode="&#x12f;" horiz-adv-x="263" 
d="M186 -119l29 -62q-36 -25 -78 -25q-49 0 -77.5 31.5t-28.5 79.5q0 64 41 109v505h119v-519h-21q-56 -35 -56 -90q0 -18 10 -30t29 -12q11 0 33 13zM132 606q-33 0 -54 20.5t-21 52.5q0 33 21 54t54 21q32 0 53 -21t21 -54q0 -32 -21 -52.5t-53 -20.5z" />
    <glyph glyph-name="Idotaccent" unicode="&#x130;" horiz-adv-x="289" 
d="M205 710v-710h-121v710h121zM145 765q-33 0 -54 20.5t-21 52.5t21 53t54 21q32 0 53 -21t21 -53t-21 -52.5t-53 -20.5z" />
    <glyph glyph-name="dotlessi" unicode="&#x131;" horiz-adv-x="263" 
d="M191 519v-519h-119v519h119z" />
    <glyph glyph-name="Jcircumflex" unicode="&#x134;" horiz-adv-x="584" 
d="M390 226v484h121v-480q0 -111 -65 -177t-176 -66q-109 0 -174.5 61t-65.5 168l3 46h122q-3 -17 -3 -46q0 -55 31.5 -88t86.5 -33q58 0 89 34.5t31 96.5zM299 853l152 79l153 -79v-96l-153 75l-152 -75v96z" />
    <glyph glyph-name="jcircumflex" unicode="&#x135;" horiz-adv-x="263" 
d="M-21 669l152 79l152 -79v-96l-152 75l-152 -75v96zM-10 -217v106q8 -1 18 -1q35 0 49.5 14t14.5 55v562h119v-562q0 -88 -46 -132t-124 -44z" />
    <glyph glyph-name="Kcommaaccent" unicode="&#x136;" horiz-adv-x="696" 
d="M707 0h-151l-227 324l-124 -129v-195h-121v710h121v-362l329 362h159l-280 -295zM314 -50l101 6q7 -19 7 -53q0 -33 -10.5 -62t-25.5 -46.5t-30 -31t-26 -19.5l-10 -5l-59 70q3 1 7 3.5t14.5 11t19 18t15 25.5t6.5 34q0 12 -2.5 24.5t-4.5 18.5z" />
    <glyph glyph-name="kcommaaccent" unicode="&#x137;" horiz-adv-x="564" 
d="M412 519h150l-201 -219l216 -300h-142l-153 222l-91 -98v-124h-119v750h119v-484zM260 -50l101 6q7 -19 7 -53q0 -33 -10.5 -62t-25.5 -46.5t-30 -31t-26 -19.5l-10 -5l-59 70q3 1 7 3.5t14.5 11t19 18t15 25.5t6.5 34q0 12 -2.5 24.5t-4.5 18.5z" />
    <glyph glyph-name="Lacute" unicode="&#x139;" horiz-adv-x="545" 
d="M534 112v-112h-450v710h121v-598h329zM151 941h123l-79 -171h-107z" />
    <glyph glyph-name="lacute" unicode="&#x13a;" horiz-adv-x="263" 
d="M191 0h-119v750h119v-750zM141 981h123l-79 -171h-107z" />
    <glyph glyph-name="Lcommaaccent" unicode="&#x13b;" horiz-adv-x="545" 
d="M534 112v-112h-450v710h121v-598h329zM270 -50l101 6q7 -19 7 -53q0 -33 -10.5 -62t-25.5 -46.5t-30 -31t-26 -19.5l-10 -5l-59 70q3 1 7 3.5t14.5 11t19 18t15 25.5t6.5 34q0 12 -2.5 24.5t-4.5 18.5z" />
    <glyph glyph-name="lcommaaccent" unicode="&#x13c;" horiz-adv-x="263" 
d="M191 0h-119v750h119v-750zM80 -50l101 6q7 -19 7 -53q0 -33 -10.5 -62t-25.5 -46.5t-30 -31t-26 -19.5l-10 -5l-59 70q3 1 7 3.5t14.5 11t19 18t15 25.5t6.5 34q0 12 -2.5 24.5t-4.5 18.5z" />
    <glyph glyph-name="Lcaron" unicode="&#x13d;" horiz-adv-x="545" 
d="M534 112v-112h-450v710h121v-598h329zM333 709l101 6q7 -19 7 -53q0 -33 -10.5 -62t-25.5 -46.5t-30 -31t-25 -18.5l-11 -6l-59 70q3 1 7 3.5t14.5 11t19 18t15 25.5t6.5 34q0 12 -2 24.5t-4 18.5z" />
    <glyph glyph-name="lcaron" unicode="&#x13e;" horiz-adv-x="263" 
d="M191 0h-119v750h119v-750zM276 746l101 6q7 -19 7 -53q0 -33 -10.5 -62t-25.5 -46.5t-30 -31t-26 -19.5l-10 -5l-59 70q3 1 7 3.5t14.5 11t19 18t15 25.5t6.5 34q0 12 -2.5 24.5t-4.5 18.5z" />
    <glyph glyph-name="Lslash" unicode="&#x141;" horiz-adv-x="545" 
d="M534 112v-112h-450v253l-77 -20v101l77 21v355h121v-323l101 27v-101l-101 -27v-174h329z" />
    <glyph glyph-name="lslash" unicode="&#x142;" horiz-adv-x="263" 
d="M191 0h-118v254l-75 -21v98l75 21v398h118v-364l74 21v-99l-74 -21v-287z" />
    <glyph glyph-name="Nacute" unicode="&#x143;" horiz-adv-x="755" 
d="M203 510v-510h-119v710h123l345 -511v511h119v-710h-124zM387 941h123l-79 -171h-107z" />
    <glyph glyph-name="nacute" unicode="&#x144;" horiz-adv-x="603" 
d="M182 519v-69q18 34 59.5 57.5t100.5 23.5q92 0 142.5 -56t50.5 -149v-326h-119v311q0 55 -25.5 86.5t-77.5 31.5q-57 0 -89.5 -34t-32.5 -94v-301h-119v519h110zM303 760h123l-79 -171h-107z" />
    <glyph glyph-name="Ncommaaccent" unicode="&#x145;" horiz-adv-x="755" 
d="M203 510v-510h-119v710h123l345 -511v511h119v-710h-124zM331 -50l101 6q7 -19 7 -53q0 -33 -10.5 -62t-25.5 -46.5t-30 -31t-25 -19.5l-11 -5l-59 70q3 1 7 3.5t14.5 11t19 18t15 25.5t6.5 34q0 12 -2 24.5t-4 18.5z" />
    <glyph glyph-name="ncommaaccent" unicode="&#x146;" horiz-adv-x="603" 
d="M182 519v-69q18 34 59.5 57.5t100.5 23.5q92 0 142.5 -56t50.5 -149v-326h-119v311q0 55 -25.5 86.5t-77.5 31.5q-57 0 -89.5 -34t-32.5 -94v-301h-119v519h110zM259 -50l101 6q7 -19 7 -53q0 -33 -10.5 -62t-25.5 -46.5t-30 -31t-25 -19.5l-11 -5l-59 70q3 1 7 3.5
t14.5 11t19 18t15 25.5t6.5 34q0 12 -2 24.5t-4 18.5z" />
    <glyph glyph-name="Ncaron" unicode="&#x147;" horiz-adv-x="755" 
d="M203 510v-510h-119v710h123l345 -511v511h119v-710h-124zM377 754l-152 79v96l152 -75l153 75v-96z" />
    <glyph glyph-name="ncaron" unicode="&#x148;" horiz-adv-x="603" 
d="M182 519v-69q18 34 59.5 57.5t100.5 23.5q92 0 142.5 -56t50.5 -149v-326h-119v311q0 55 -25.5 86.5t-77.5 31.5q-57 0 -89.5 -34t-32.5 -94v-301h-119v519h110zM300 570l-152 79v96l152 -75l153 75v-96z" />
    <glyph glyph-name="Eng" unicode="&#x14a;" horiz-adv-x="755" 
d="M552 2l-349 508v-510h-119v710h123l345 -501v501h119v-671q0 -102 -48 -171t-146 -88l-42 94q59 13 87.5 42t29.5 86z" />
    <glyph glyph-name="eng" unicode="&#x14b;" horiz-adv-x="603" 
d="M416 40v271q0 55 -25.5 86.5t-77.5 31.5q-57 0 -89.5 -34t-32.5 -94v-301h-119v519h110v-69q18 34 59.5 57.5t100.5 23.5q92 0 142.5 -56t50.5 -149v-261q0 -99 -46.5 -167.5t-140.5 -89.5l-43 94q111 29 111 138z" />
    <glyph glyph-name="Omacron" unicode="&#x14c;" horiz-adv-x="824" 
d="M173 355q0 -114 67 -184t172 -70t172 70t67 184t-67 184t-172 70t-172 -70t-67 -184zM45 355q0 159 103 264.5t264 105.5t264 -105.5t103 -264.5t-103 -264.5t-264 -105.5t-264 105.5t-103 264.5zM589 862v-92h-356v92h356z" />
    <glyph glyph-name="omacron" unicode="&#x14d;" horiz-adv-x="615" 
d="M307 -12q-120 0 -194.5 79t-74.5 192t74.5 192.5t194.5 79.5q121 0 195.5 -79.5t74.5 -192.5t-74.5 -192t-195.5 -79zM157 259q0 -74 42.5 -120t107.5 -46q66 0 108.5 46t42.5 120q0 75 -42.5 121t-108.5 46q-65 0 -107.5 -46t-42.5 -121zM485 712v-92h-356v92h356z" />
    <glyph glyph-name="Obreve" unicode="&#x14e;" horiz-adv-x="824" 
d="M173 355q0 -114 67 -184t172 -70t172 70t67 184t-67 184t-172 70t-172 -70t-67 -184zM45 355q0 159 103 264.5t264 105.5t264 -105.5t103 -264.5t-103 -264.5t-264 -105.5t-264 105.5t-103 264.5zM412 831q71 0 71 75h85q0 -72 -42 -112t-114 -40t-114.5 40t-42.5 112h86
q0 -75 71 -75z" />
    <glyph glyph-name="obreve" unicode="&#x14f;" horiz-adv-x="615" 
d="M307 -12q-120 0 -194.5 79t-74.5 192t74.5 192.5t194.5 79.5q121 0 195.5 -79.5t74.5 -192.5t-74.5 -192t-195.5 -79zM157 259q0 -74 42.5 -120t107.5 -46q66 0 108.5 46t42.5 120q0 75 -42.5 121t-108.5 46q-65 0 -107.5 -46t-42.5 -121zM307 665q71 0 71 75h85
q0 -72 -42 -112t-114 -40t-114.5 40t-42.5 112h86q0 -75 71 -75z" />
    <glyph glyph-name="Ohungarumlaut" unicode="&#x150;" horiz-adv-x="824" 
d="M173 355q0 -114 67 -184t172 -70t172 70t67 184t-67 184t-172 70t-172 -70t-67 -184zM45 355q0 159 103 264.5t264 105.5t264 -105.5t103 -264.5t-103 -264.5t-264 -105.5t-264 105.5t-103 264.5zM332 942h125l-89 -171h-99zM505 942h125l-89 -171h-99z" />
    <glyph glyph-name="ohungarumlaut" unicode="&#x151;" horiz-adv-x="615" 
d="M307 -12q-120 0 -194.5 79t-74.5 192t74.5 192.5t194.5 79.5q121 0 195.5 -79.5t74.5 -192.5t-74.5 -192t-195.5 -79zM157 259q0 -74 42.5 -120t107.5 -46q66 0 108.5 46t42.5 120q0 75 -42.5 121t-108.5 46q-65 0 -107.5 -46t-42.5 -121zM220 750h125l-89 -171h-99z
M393 750h125l-89 -171h-99z" />
    <glyph glyph-name="OE" unicode="&#x152;" horiz-adv-x="1198" 
d="M1146 112v-112h-500v83q-89 -98 -236 -98q-157 0 -261 103.5t-104 266.5t104 266.5t261 103.5q147 0 236 -100v85h500v-112h-378v-182h360v-112h-360v-192h378zM410 609q-106 0 -171.5 -69t-65.5 -185t65.5 -185t171.5 -69t171 69.5t65 184.5t-65 184.5t-171 69.5z" />
    <glyph glyph-name="oe" unicode="&#x153;" horiz-adv-x="1009" 
d="M307 -12q-120 0 -194.5 79t-74.5 192t74.5 192.5t194.5 79.5q132 0 209 -99q74 99 201 99q114 0 184.5 -76.5t70.5 -192.5l-2 -37h-394q7 -62 45 -98.5t100 -36.5q41 0 74 20t46 54h120q-23 -79 -88.5 -127.5t-154.5 -48.5q-130 0 -202 97q-76 -97 -209 -97zM578 313h275
q-7 55 -43.5 88t-93.5 33q-56 0 -92.5 -33t-45.5 -88zM307 93q67 0 109.5 46t42.5 120q0 75 -42.5 121t-109.5 46q-65 0 -107.5 -46t-42.5 -121q0 -74 42.5 -120t107.5 -46z" />
    <glyph glyph-name="Racute" unicode="&#x154;" horiz-adv-x="673" 
d="M654 0h-142l-144 280h-163v-280h-121v710h312q114 0 174 -59t60 -156q0 -73 -35 -125.5t-104 -74.5zM508 495q0 47 -28 75t-83 28h-192v-206h192q55 0 83 28t28 75zM336 941h123l-79 -171h-107z" />
    <glyph glyph-name="racute" unicode="&#x155;" horiz-adv-x="366" 
d="M352 523v-111q-14 2 -27 2q-134 0 -134 -144v-270h-119v519h110v-72q44 77 153 77zM198 760h123l-79 -171h-107z" />
    <glyph glyph-name="Rcommaaccent" unicode="&#x156;" horiz-adv-x="673" 
d="M654 0h-142l-144 280h-163v-280h-121v710h312q114 0 174 -59t60 -156q0 -73 -35 -125.5t-104 -74.5zM508 495q0 47 -28 75t-83 28h-192v-206h192q55 0 83 28t28 75zM303 -50l101 6q7 -19 7 -53q0 -33 -10.5 -62t-25.5 -46.5t-30 -31t-25 -19.5l-11 -5l-59 70q3 1 7 3.5
t14.5 11t19 18t15 25.5t6.5 34q0 12 -2 24.5t-4 18.5z" />
    <glyph glyph-name="rcommaaccent" unicode="&#x157;" horiz-adv-x="366" 
d="M352 523v-111q-14 2 -27 2q-134 0 -134 -144v-270h-119v519h110v-72q44 77 153 77zM80 -50l101 6q7 -19 7 -53q0 -33 -10.5 -62t-25.5 -46.5t-30 -31t-26 -19.5l-10 -5l-59 70q3 1 7 3.5t14.5 11t19 18t15 25.5t6.5 34q0 12 -2.5 24.5t-4.5 18.5z" />
    <glyph glyph-name="Rcaron" unicode="&#x158;" horiz-adv-x="673" 
d="M654 0h-142l-144 280h-163v-280h-121v710h312q114 0 174 -59t60 -156q0 -73 -35 -125.5t-104 -74.5zM508 495q0 47 -28 75t-83 28h-192v-206h192q55 0 83 28t28 75zM334 755l-152 79v96l152 -75l153 75v-96z" />
    <glyph glyph-name="rcaron" unicode="&#x159;" horiz-adv-x="366" 
d="M352 523v-111q-14 2 -27 2q-134 0 -134 -144v-270h-119v519h110v-72q44 77 153 77zM205 570l-152 79v96l152 -75l153 75v-96z" />
    <glyph glyph-name="Sacute" unicode="&#x15a;" horiz-adv-x="636" 
d="M312 95q73 0 113 25.5t40 73.5q0 35 -22 57t-57 33t-77 19.5t-84.5 21t-77.5 32.5t-57 60t-22 98q0 88 69.5 149t184.5 61q121 0 188.5 -65.5t69.5 -169.5h-119q-1 55 -37 90.5t-102 35.5q-63 0 -98.5 -25.5t-35.5 -72.5q0 -31 22 -51.5t57.5 -31t78 -19t85 -22t78 -35
t57.5 -62t22 -98.5q0 -97 -77 -155t-205 -58q-131 0 -197 69t-69 167h120q4 -59 43 -93t109 -34zM327 942h123l-79 -171h-107z" />
    <glyph glyph-name="sacute" unicode="&#x15b;" horiz-adv-x="502" 
d="M250 -12q-107 0 -161 50t-59 128h115q2 -36 31 -58t81 -22q46 0 71 16t25 43q0 30 -30.5 44.5t-74.5 21.5t-88 18.5t-74.5 45.5t-30.5 93q0 68 56.5 115.5t149.5 47.5q53 0 93.5 -16.5t63 -43.5t34 -55t13.5 -57h-114q-3 31 -26.5 53t-66.5 22t-66 -16.5t-23 -45.5
q0 -27 30.5 -41t74.5 -21t88 -19.5t74.5 -47.5t30.5 -93q0 -70 -56.5 -116t-160.5 -46zM267 760h123l-79 -171h-107z" />
    <glyph glyph-name="Scircumflex" unicode="&#x15c;" horiz-adv-x="636" 
d="M312 95q73 0 113 25.5t40 73.5q0 35 -22 57t-57 33t-77 19.5t-84.5 21t-77.5 32.5t-57 60t-22 98q0 88 69.5 149t184.5 61q121 0 188.5 -65.5t69.5 -169.5h-119q-1 55 -37 90.5t-102 35.5q-63 0 -98.5 -25.5t-35.5 -72.5q0 -31 22 -51.5t57.5 -31t78 -19t85 -22t78 -35
t57.5 -62t22 -98.5q0 -97 -77 -155t-205 -58q-131 0 -197 69t-69 167h120q4 -59 43 -93t109 -34zM173 851l152 79l153 -79v-96l-153 75l-152 -75v96z" />
    <glyph glyph-name="scircumflex" unicode="&#x15d;" horiz-adv-x="502" 
d="M250 -12q-107 0 -161 50t-59 128h115q2 -36 31 -58t81 -22q46 0 71 16t25 43q0 30 -30.5 44.5t-74.5 21.5t-88 18.5t-74.5 45.5t-30.5 93q0 68 56.5 115.5t149.5 47.5q53 0 93.5 -16.5t63 -43.5t34 -55t13.5 -57h-114q-3 31 -26.5 53t-66.5 22t-66 -16.5t-23 -45.5
q0 -27 30.5 -41t74.5 -21t88 -19.5t74.5 -47.5t30.5 -93q0 -70 -56.5 -116t-160.5 -46zM111 669l152 79l153 -79v-96l-153 75l-152 -75v96z" />
    <glyph glyph-name="Scedilla" unicode="&#x15e;" horiz-adv-x="636" 
d="M241 -215l33 54q21 -20 56 -20q45 0 45 38t-44 38q-10 0 -18.5 -3.5t-12.5 -6.5l-4 -3l-39 23l25 82q-119 7 -179 74.5t-63 160.5h120q4 -59 43 -93t109 -34q73 0 113 25.5t40 73.5q0 35 -22 57t-57 33t-77 19.5t-84.5 21t-77.5 32.5t-57 60t-22 98q0 88 69.5 149
t184.5 61q121 0 188.5 -65.5t69.5 -169.5h-119q-1 55 -37 90.5t-102 35.5q-63 0 -98.5 -25.5t-35.5 -72.5q0 -31 22 -51.5t57.5 -31t78 -19t85 -22t78 -35t57.5 -62t22 -98.5q0 -90 -67 -146.5t-181 -64.5l-11 -38q6 3 25 3q40 0 66 -26t26 -67q0 -49 -31.5 -77t-79.5 -28
q-29 0 -52.5 7.5t-32.5 15.5z" />
    <glyph glyph-name="scedilla" unicode="&#x15f;" horiz-adv-x="516" 
d="M192 -215l33 54q21 -20 56 -20q45 0 45 38t-44 38q-10 0 -18.5 -3.5t-12.5 -6.5l-4 -3l-39 23l25 85q-92 7 -138.5 55.5t-50.5 120.5h115q2 -36 31 -58t81 -22q46 0 71 16t25 43q0 30 -30.5 44.5t-74.5 21.5t-88 18.5t-74.5 45.5t-30.5 93q0 68 56.5 115.5t149.5 47.5
q53 0 93.5 -16.5t63 -43.5t34 -55t13.5 -57h-114q-3 31 -26.5 53t-66.5 22t-66 -16.5t-23 -45.5q0 -27 30.5 -41t74.5 -21t88 -19.5t74.5 -47.5t30.5 -93q0 -65 -49 -110t-140 -51l-12 -39q6 3 25 3q40 0 66 -26t26 -67q0 -49 -31.5 -77t-79.5 -28q-29 0 -52.5 7.5
t-32.5 15.5z" />
    <glyph glyph-name="Scaron" unicode="&#x160;" horiz-adv-x="636" 
d="M312 95q73 0 113 25.5t40 73.5q0 35 -22 57t-57 33t-77 19.5t-84.5 21t-77.5 32.5t-57 60t-22 98q0 88 69.5 149t184.5 61q121 0 188.5 -65.5t69.5 -169.5h-119q-1 55 -37 90.5t-102 35.5q-63 0 -98.5 -25.5t-35.5 -72.5q0 -31 22 -51.5t57.5 -31t78 -19t85 -22t78 -35
t57.5 -62t22 -98.5q0 -97 -77 -155t-205 -58q-131 0 -197 69t-69 167h120q4 -59 43 -93t109 -34zM325 754l-152 79v96l152 -75l153 75v-96z" />
    <glyph glyph-name="scaron" unicode="&#x161;" horiz-adv-x="502" 
d="M250 -12q-107 0 -161 50t-59 128h115q2 -36 31 -58t81 -22q46 0 71 16t25 43q0 30 -30.5 44.5t-74.5 21.5t-88 18.5t-74.5 45.5t-30.5 93q0 68 56.5 115.5t149.5 47.5q53 0 93.5 -16.5t63 -43.5t34 -55t13.5 -57h-114q-3 31 -26.5 53t-66.5 22t-66 -16.5t-23 -45.5
q0 -27 30.5 -41t74.5 -21t88 -19.5t74.5 -47.5t30.5 -93q0 -70 -56.5 -116t-160.5 -46zM260 570l-152 79v96l152 -75l153 75v-96z" />
    <glyph glyph-name="Tcommaaccent" unicode="&#x162;" horiz-adv-x="546" 
d="M539 710v-115h-206v-595h-121v595h-206v115h533zM222 -50l101 6q7 -19 7 -53q0 -33 -10.5 -62t-25.5 -46.5t-30 -31t-26 -19.5l-10 -5l-59 70q3 1 7 3.5t14.5 11t19 18t15 25.5t6.5 34q0 12 -2.5 24.5t-4.5 18.5z" />
    <glyph glyph-name="tcommaaccent" unicode="&#x163;" horiz-adv-x="330" 
d="M305 106v-103q-22 -6 -62 -6q-152 0 -152 153v274h-79v95h79v135h119v-135h97v-95h-97v-262q0 -61 58 -61zM140 -50l101 6q7 -19 7 -53q0 -33 -10.5 -62t-25.5 -46.5t-30 -31t-26 -19.5l-10 -5l-59 70q3 1 7 3.5t14.5 11t19 18t15 25.5t6.5 34q0 12 -2.5 24.5t-4.5 18.5z
" />
    <glyph glyph-name="Tcaron" unicode="&#x164;" horiz-adv-x="546" 
d="M539 710v-115h-206v-595h-121v595h-206v115h533zM272 755l-152 79v96l152 -75l153 75v-96z" />
    <glyph glyph-name="tcaron" unicode="&#x165;" horiz-adv-x="330" 
d="M305 106v-103q-22 -6 -62 -6q-152 0 -152 153v274h-79v95h79v135h119v-135h97v-95h-97v-262q0 -61 58 -61zM289 746l97 5q7 -17 7 -48q0 -30 -10 -56t-24.5 -42.5t-29 -28.5t-24.5 -17l-10 -5l-57 64q2 1 6.5 3t14.5 9.5t18 16.5t14.5 23.5t6.5 30.5q0 12 -2 23t-4 16z
" />
    <glyph glyph-name="Tbar" unicode="&#x166;" horiz-adv-x="546" 
d="M539 710v-115h-206v-190h122v-93h-122v-312h-121v312h-122v93h122v190h-206v115h533z" />
    <glyph glyph-name="tbar" unicode="&#x167;" horiz-adv-x="330" 
d="M305 106v-103q-22 -6 -62 -6q-151 0 -151 153v95h-62v94h62v85h-80v95h80v135h118v-135h97v-95h-97v-85h78v-94h-78v-83q0 -61 59 -61z" />
    <glyph glyph-name="Utilde" unicode="&#x168;" horiz-adv-x="739" 
d="M370 -15q-129 0 -212 79t-83 228v418h121v-423q0 -88 44.5 -139t129.5 -51t129.5 51t44.5 139v423h121v-418q0 -149 -83 -228t-212 -79zM435 766q-32 0 -74.5 19t-63.5 19q-33 0 -38 -34h-74q3 54 34 87t84 33q32 0 75 -19t64 -19q31 0 36 34h75q-3 -54 -34 -87t-84 -33z
" />
    <glyph glyph-name="utilde" unicode="&#x169;" horiz-adv-x="598" 
d="M407 220v299h119v-519h-110v67q-18 -34 -58.5 -56.5t-99.5 -22.5q-92 0 -141.5 55.5t-49.5 148.5v327h119v-311q0 -118 101 -118q56 0 88 33.5t32 96.5zM367 607q-32 0 -74.5 19t-63.5 19q-33 0 -38 -34h-74q3 54 34 87t84 33q32 0 75 -19t64 -19q31 0 36 34h75
q-3 -54 -34 -87t-84 -33z" />
    <glyph glyph-name="Umacron" unicode="&#x16a;" horiz-adv-x="739" 
d="M370 -15q-129 0 -212 79t-83 228v418h121v-423q0 -88 44.5 -139t129.5 -51t129.5 51t44.5 139v423h121v-418q0 -149 -83 -228t-212 -79zM547 862v-92h-356v92h356z" />
    <glyph glyph-name="umacron" unicode="&#x16b;" horiz-adv-x="598" 
d="M407 220v299h119v-519h-110v67q-18 -34 -58.5 -56.5t-99.5 -22.5q-92 0 -141.5 55.5t-49.5 148.5v327h119v-311q0 -118 101 -118q56 0 88 33.5t32 96.5zM477 712v-92h-356v92h356z" />
    <glyph glyph-name="Ubreve" unicode="&#x16c;" horiz-adv-x="739" 
d="M370 -15q-129 0 -212 79t-83 228v418h121v-423q0 -88 44.5 -139t129.5 -51t129.5 51t44.5 139v423h121v-418q0 -149 -83 -228t-212 -79zM370 832q71 0 71 75h85q0 -72 -42 -112t-114 -40t-114.5 40t-42.5 112h86q0 -75 71 -75z" />
    <glyph glyph-name="ubreve" unicode="&#x16d;" horiz-adv-x="598" 
d="M407 220v299h119v-519h-110v67q-18 -34 -58.5 -56.5t-99.5 -22.5q-92 0 -141.5 55.5t-49.5 148.5v327h119v-311q0 -118 101 -118q56 0 88 33.5t32 96.5zM299 665q71 0 71 75h85q0 -72 -42 -112t-114 -40t-114.5 40t-42.5 112h86q0 -75 71 -75z" />
    <glyph glyph-name="Uring" unicode="&#x16e;" horiz-adv-x="739" 
d="M370 -15q-129 0 -212 79t-83 228v418h121v-423q0 -88 44.5 -139t129.5 -51t129.5 51t44.5 139v423h121v-418q0 -149 -83 -228t-212 -79zM319 860q0 -23 14 -38.5t38 -15.5t38 15.5t14 38.5t-14 38.5t-38 15.5t-38 -15.5t-14 -38.5zM251 860q0 50 34 84.5t86 34.5
q53 0 86.5 -34.5t33.5 -84.5q0 -51 -33.5 -85.5t-86.5 -34.5t-86.5 34.5t-33.5 85.5z" />
    <glyph glyph-name="uring" unicode="&#x16f;" horiz-adv-x="598" 
d="M407 220v299h119v-519h-110v67q-18 -34 -58.5 -56.5t-99.5 -22.5q-92 0 -141.5 55.5t-49.5 148.5v327h119v-311q0 -118 101 -118q56 0 88 33.5t32 96.5zM246 695q0 -23 14 -38.5t38 -15.5t38 15.5t14 38.5t-14 38.5t-38 15.5t-38 -15.5t-14 -38.5zM178 695q0 50 34 84.5
t86 34.5q53 0 86.5 -34.5t33.5 -84.5q0 -51 -33.5 -85.5t-86.5 -34.5t-86.5 34.5t-33.5 85.5z" />
    <glyph glyph-name="Uhungarumlaut" unicode="&#x170;" horiz-adv-x="739" 
d="M370 -15q-129 0 -212 79t-83 228v418h121v-423q0 -88 44.5 -139t129.5 -51t129.5 51t44.5 139v423h121v-418q0 -149 -83 -228t-212 -79zM286 941h125l-89 -171h-99zM459 941h125l-89 -171h-99z" />
    <glyph glyph-name="uhungarumlaut" unicode="&#x171;" horiz-adv-x="598" 
d="M407 220v299h119v-519h-110v67q-18 -34 -58.5 -56.5t-99.5 -22.5q-92 0 -141.5 55.5t-49.5 148.5v327h119v-311q0 -118 101 -118q56 0 88 33.5t32 96.5zM207 750h125l-89 -171h-99zM380 750h125l-89 -171h-99z" />
    <glyph glyph-name="Uogonek" unicode="&#x172;" horiz-adv-x="739" 
d="M443 -122l29 -62q-36 -25 -78 -25q-49 0 -77.5 31.5t-28.5 79.5q0 49 24 88q-107 17 -172 93.5t-65 208.5v418h121v-423q0 -88 44.5 -139t129.5 -51t129.5 51t44.5 139v423h121v-418q0 -136 -70 -213.5t-182 -90.5q-42 -34 -42 -81q0 -18 10 -30t29 -12q11 0 33 13z" />
    <glyph glyph-name="uogonek" unicode="&#x173;" horiz-adv-x="598" 
d="M526 -119l29 -62q-36 -25 -78 -25q-49 0 -77.5 31.5t-28.5 79.5q0 66 45 114v48q-18 -34 -58.5 -56.5t-99.5 -22.5q-92 0 -141.5 55.5t-49.5 148.5v327h119v-311q0 -118 101 -118q56 0 88 33.5t32 96.5v299h119v-519h-16q-56 -35 -56 -90q0 -18 10 -30t29 -12q11 0 33 13
z" />
    <glyph glyph-name="Wcircumflex" unicode="&#x174;" horiz-adv-x="1041" 
d="M519 539l-159 -539h-130l-221 710h137l149 -539h2l158 539h133l158 -539h2l150 539h133l-221 -710h-130l-159 539h-2zM368 851l152 79l153 -79v-96l-153 75l-152 -75v96z" />
    <glyph glyph-name="wcircumflex" unicode="&#x175;" horiz-adv-x="839" 
d="M537 0l-117 356h-1l-118 -356h-113l-181 519h123l116 -372l119 372h110l118 -373l117 373h121l-181 -519h-113zM267 669l152 79l153 -79v-96l-153 75l-152 -75v96z" />
    <glyph glyph-name="Ycircumflex" unicode="&#x176;" horiz-adv-x="630" 
d="M499 710h141l-265 -461v-249h-121v249l-265 461h140l184 -336h2zM163 851l152 79l153 -79v-96l-153 75l-152 -75v96z" />
    <glyph glyph-name="ycircumflex" unicode="&#x177;" horiz-adv-x="545" 
d="M126 -208l88 212l-209 515h127l141 -376l143 376h124l-296 -727h-118zM120 669l152 79l153 -79v-96l-153 75l-152 -75v96z" />
    <glyph glyph-name="Ydieresis" unicode="&#x178;" horiz-adv-x="630" 
d="M499 710h141l-265 -461v-249h-121v249l-265 461h140l184 -336h2zM229 761q-29 0 -47.5 18.5t-18.5 46.5q0 29 18.5 47.5t47.5 18.5t47.5 -18.5t18.5 -47.5q0 -28 -18.5 -46.5t-47.5 -18.5zM400 761q-29 0 -47.5 18t-18.5 47t18.5 47.5t47.5 18.5t47.5 -18.5t18.5 -47.5
q0 -28 -18.5 -46.5t-47.5 -18.5z" />
    <glyph glyph-name="Zacute" unicode="&#x179;" horiz-adv-x="665" 
d="M614 710v-106l-409 -492h413v-112h-571v106l409 492h-405v112h563zM332 941h123l-79 -171h-107z" />
    <glyph glyph-name="zacute" unicode="&#x17a;" horiz-adv-x="539" 
d="M485 422l-286 -319h290v-103h-439v97l285 319h-281v103h431v-97zM271 760h123l-79 -171h-107z" />
    <glyph glyph-name="Zdotaccent" unicode="&#x17b;" horiz-adv-x="665" 
d="M614 710v-106l-409 -492h413v-112h-571v106l409 492h-405v112h563zM333 765q-33 0 -54 20.5t-21 52.5t21 53t54 21q32 0 53 -21t21 -53t-21 -52.5t-53 -20.5z" />
    <glyph glyph-name="zdotaccent" unicode="&#x17c;" horiz-adv-x="539" 
d="M485 422l-286 -319h290v-103h-439v97l285 319h-281v103h431v-97zM269 604q-33 0 -54 20.5t-21 52.5t21 53t54 21q32 0 53 -21t21 -53t-21 -52.5t-53 -20.5z" />
    <glyph glyph-name="Zcaron" unicode="&#x17d;" horiz-adv-x="665" 
d="M614 710v-106l-409 -492h413v-112h-571v106l409 492h-405v112h563zM332 755l-152 79v96l152 -75l153 75v-96z" />
    <glyph glyph-name="zcaron" unicode="&#x17e;" horiz-adv-x="539" 
d="M485 422l-286 -319h290v-103h-439v97l285 319h-281v103h431v-97zM269 570l-152 79v96l152 -75l153 75v-96z" />
    <glyph glyph-name="florin" unicode="&#x192;" 
d="M345 337l-68 -344q-32 -163 -181 -163q-24 0 -47 6t-35 12l-11 7l40 95q22 -15 50 -15q56 0 69 71l64 331h-85l19 104h86l30 146q33 163 181 163q24 0 47 -6t34 -12l12 -7l-40 -95q-22 15 -50 15q-56 0 -69 -71l-26 -133h85l-19 -104h-86z" />
    <glyph glyph-name="Aringacute" unicode="&#x1fa;" horiz-adv-x="683" 
d="M129 0h-128l276 710h129l275 -710h-131l-51 137h-318zM223 860q0 41 22.5 72t59.5 41l47 126h101l-60 -130q32 -14 51 -43t19 -66q0 -51 -33.5 -85.5t-86.5 -34.5t-86.5 34.5t-33.5 85.5zM341 560h-2l-118 -313h237zM291 860q0 -23 14 -38.5t38 -15.5t38 15.5t14 38.5
t-14 38.5t-38 15.5t-38 -15.5t-14 -38.5z" />
    <glyph glyph-name="aringacute" unicode="&#x1fb;" horiz-adv-x="580" 
d="M225 -12q-92 0 -137 43t-45 114q0 136 199 164l150 21v8q0 95 -111 95q-97 0 -110 -77h-116q8 76 63.5 125.5t165.5 49.5q111 0 167.5 -51t56.5 -143v-239q0 -63 15 -98h-113q-7 26 -7 68q-53 -80 -178 -80zM168 695q0 41 22.5 72t59.5 41l47 126h101l-60 -130
q33 -14 52 -43t19 -66q0 -51 -33.5 -85.5t-86.5 -34.5t-87 34.5t-34 85.5zM392 244l-138 -21q-97 -15 -97 -74q0 -68 92 -68q69 0 106 37t37 93v33zM237 695q0 -23 14 -38.5t38 -15.5q23 0 37.5 15.5t14.5 38.5t-14.5 38.5t-37.5 15.5q-24 0 -38 -15.5t-14 -38.5z" />
    <glyph glyph-name="AEacute" unicode="&#x1fc;" horiz-adv-x="987" 
d="M115 0h-137l391 710h566v-112h-378v-182h361v-112h-361v-192h378v-112h-500v137h-246zM432 588l-186 -341h189v341h-3zM570 941h123l-79 -171h-107z" />
    <glyph glyph-name="aeacute" unicode="&#x1fd;" horiz-adv-x="942" 
d="M233 -12q-93 0 -141.5 43.5t-48.5 113.5q0 136 199 164l150 21v8q0 95 -111 95q-97 0 -110 -77h-116q8 76 63.5 125.5t165.5 49.5q130 0 186 -77q72 77 181 77q113 0 184 -76.5t71 -192.5l-2 -37h-394q6 -62 44 -98.5t100 -36.5q41 0 74 20t47 54h120
q-24 -79 -89.5 -127.5t-154.5 -48.5q-133 0 -207 102q-59 -102 -211 -102zM249 81q69 0 106 36.5t37 93.5v33l-138 -21q-97 -15 -97 -74q0 -68 92 -68zM650 434q-56 0 -92.5 -33t-45.5 -88h275q-8 55 -44 88t-93 33zM476 760h123l-79 -171h-107z" />
    <glyph glyph-name="Oslashacute" unicode="&#x1fe;" horiz-adv-x="824" 
d="M419 942h123l-79 -171h-107zM45 355q0 159 103 264.5t264 105.5q121 0 215 -65l77 88l54 -50l-75 -86q96 -106 96 -257q0 -159 -103 -264.5t-264 -105.5q-124 0 -218 66l-77 -89l-54 48l77 89q-95 103 -95 256zM651 355q0 96 -50 163l-327 -376q58 -41 138 -41
q105 0 172 70t67 184zM173 355q0 -97 48 -162l327 376q-58 40 -136 40q-105 0 -172 -70t-67 -184z" />
    <glyph glyph-name="oslashacute" unicode="&#x1ff;" horiz-adv-x="615" 
d="M309 760h123l-79 -171h-107zM307 -12q-89 0 -156 46l-54 -63l-45 40l54 63q-68 76 -68 185q0 113 74.5 192.5t194.5 79.5q88 0 155 -46l57 66l45 -40l-56 -65q69 -78 69 -187q0 -113 -74.5 -192t-195.5 -79zM458 259q0 55 -26 99l-208 -241q34 -24 83 -24q66 0 108.5 46
t42.5 120zM157 259q0 -56 25 -98l208 241q-38 24 -83 24q-65 0 -107.5 -46t-42.5 -121z" />
    <glyph glyph-name="Scommaaccent" unicode="&#x218;" horiz-adv-x="636" 
d="M312 95q73 0 113 25.5t40 73.5q0 35 -22 57t-57 33t-77 19.5t-84.5 21t-77.5 32.5t-57 60t-22 98q0 88 69.5 149t184.5 61q121 0 188.5 -65.5t69.5 -169.5h-119q-1 55 -37 90.5t-102 35.5q-63 0 -98.5 -25.5t-35.5 -72.5q0 -31 22 -51.5t57.5 -31t78 -19t85 -22t78 -35
t57.5 -62t22 -98.5q0 -97 -77 -155t-205 -58q-131 0 -197 69t-69 167h120q4 -59 43 -93t109 -34zM276 -50l101 6q7 -19 7 -53q0 -33 -10.5 -62t-25.5 -46.5t-30 -31t-26 -19.5l-10 -5l-59 70q3 1 7 3.5t14.5 11t19 18t15 25.5t6.5 34q0 12 -2.5 24.5t-4.5 18.5z" />
    <glyph glyph-name="scommaaccent" unicode="&#x219;" horiz-adv-x="502" 
d="M250 -12q-107 0 -161 50t-59 128h115q2 -36 31 -58t81 -22q46 0 71 16t25 43q0 30 -30.5 44.5t-74.5 21.5t-88 18.5t-74.5 45.5t-30.5 93q0 68 56.5 115.5t149.5 47.5q53 0 93.5 -16.5t63 -43.5t34 -55t13.5 -57h-114q-3 31 -26.5 53t-66.5 22t-66 -16.5t-23 -45.5
q0 -27 30.5 -41t74.5 -21t88 -19.5t74.5 -47.5t30.5 -93q0 -70 -56.5 -116t-160.5 -46zM210 -50l101 6q7 -19 7 -53q0 -33 -10.5 -62t-25.5 -46.5t-30 -31t-26 -19.5l-10 -5l-59 70q3 1 7 3.5t14.5 11t19 18t15 25.5t6.5 34q0 12 -2.5 24.5t-4.5 18.5z" />
    <glyph glyph-name="circumflex" unicode="&#x2c6;" horiz-adv-x="466" 
d="M82 669l152 79l153 -79v-96l-153 75l-152 -75v96z" />
    <glyph glyph-name="caron" unicode="&#x2c7;" horiz-adv-x="466" 
d="M234 570l-152 79v96l152 -75l153 75v-96z" />
    <glyph glyph-name="breve" unicode="&#x2d8;" horiz-adv-x="390" 
d="M195 665q71 0 71 75h85q0 -72 -42 -112t-114 -40t-114.5 40t-42.5 112h86q0 -75 71 -75z" />
    <glyph glyph-name="dotaccent" unicode="&#x2d9;" horiz-adv-x="263" 
d="M132 604q-33 0 -54 20.5t-21 52.5t21 53t54 21q32 0 53 -21t21 -53t-21 -52.5t-53 -20.5z" />
    <glyph glyph-name="ring" unicode="&#x2da;" horiz-adv-x="308" 
d="M104 695q0 -23 14 -38.5t38 -15.5t38 15.5t14 38.5t-14 38.5t-38 15.5t-38 -15.5t-14 -38.5zM36 695q0 50 34 84.5t86 34.5q53 0 86.5 -34.5t33.5 -84.5q0 -51 -33.5 -85.5t-86.5 -34.5t-86.5 34.5t-33.5 85.5z" />
    <glyph glyph-name="ogonek" unicode="&#x2db;" horiz-adv-x="258" 
d="M192 -119l29 -62q-36 -25 -78 -25q-49 0 -77.5 31.5t-28.5 79.5q0 99 97 153l49 -54q-63 -36 -63 -94q0 -18 10 -30t29 -12q11 0 33 13z" />
    <glyph glyph-name="tilde" unicode="&#x2dc;" horiz-adv-x="428" 
d="M280 607q-32 0 -74.5 19t-63.5 19q-33 0 -38 -34h-74q3 54 34 87t84 33q32 0 75 -19t64 -19q31 0 36 34h75q-3 -54 -34 -87t-84 -33z" />
    <glyph glyph-name="hungarumlaut" unicode="&#x2dd;" horiz-adv-x="443" 
d="M104 750h125l-89 -171h-99zM277 750h125l-89 -171h-99z" />
    <glyph glyph-name="pi" unicode="&#x3c0;" horiz-adv-x="770" 
d="M25 356q0 158 104.5 263.5t264.5 105.5t264.5 -105.5t104.5 -263.5t-104.5 -263.5t-264.5 -105.5t-264.5 105.5t-104.5 263.5zM118 356q0 -125 76 -205t200 -80t200.5 79.5t76.5 205.5q0 125 -76.5 205t-200.5 80q-123 0 -199.5 -80t-76.5 -205zM256 162v377h169
q73 0 111.5 -38t38.5 -98q0 -58 -39 -96t-111 -38h-79v-107h-90zM346 348h74q65 0 65 55q0 56 -65 56h-74v-111z" />
    <glyph glyph-name="Wgrave" unicode="&#x1e80;" horiz-adv-x="1041" 
d="M519 539l-159 -539h-130l-221 710h137l149 -539h2l158 539h133l158 -539h2l150 539h133l-221 -710h-130l-159 539h-2zM390 941h124l63 -171h-107z" />
    <glyph glyph-name="wgrave" unicode="&#x1e81;" horiz-adv-x="839" 
d="M537 0l-117 356h-1l-118 -356h-113l-181 519h123l116 -372l119 372h110l118 -373l117 373h121l-181 -519h-113zM285 760h124l63 -171h-107z" />
    <glyph glyph-name="Wacute" unicode="&#x1e82;" horiz-adv-x="1041" 
d="M519 539l-159 -539h-130l-221 710h137l149 -539h2l158 539h133l158 -539h2l150 539h133l-221 -710h-130l-159 539h-2zM532 941h123l-79 -171h-107z" />
    <glyph glyph-name="wacute" unicode="&#x1e83;" horiz-adv-x="839" 
d="M537 0l-117 356h-1l-118 -356h-113l-181 519h123l116 -372l119 372h110l118 -373l117 373h121l-181 -519h-113zM429 760h123l-79 -171h-107z" />
    <glyph glyph-name="Wdieresis" unicode="&#x1e84;" horiz-adv-x="1041" 
d="M519 539l-159 -539h-130l-221 710h137l149 -539h2l158 539h133l158 -539h2l150 539h133l-221 -710h-130l-159 539h-2zM435 762q-29 0 -47.5 18.5t-18.5 46.5q0 29 18.5 47.5t47.5 18.5t47.5 -18.5t18.5 -47.5q0 -28 -18.5 -46.5t-47.5 -18.5zM606 762q-29 0 -47.5 18
t-18.5 47t18.5 47.5t47.5 18.5t47.5 -18.5t18.5 -47.5q0 -28 -18.5 -46.5t-47.5 -18.5z" />
    <glyph glyph-name="wdieresis" unicode="&#x1e85;" horiz-adv-x="839" 
d="M537 0l-117 356h-1l-118 -356h-113l-181 519h123l116 -372l119 372h110l118 -373l117 373h121l-181 -519h-113zM333 612q-29 0 -47.5 18.5t-18.5 46.5q0 29 18.5 47.5t47.5 18.5t47.5 -18.5t18.5 -47.5q0 -28 -18.5 -46.5t-47.5 -18.5zM504 612q-29 0 -47.5 18t-18.5 47
t18.5 47.5t47.5 18.5t47.5 -18.5t18.5 -47.5q0 -28 -18.5 -46.5t-47.5 -18.5z" />
    <glyph glyph-name="Ygrave" unicode="&#x1ef2;" horiz-adv-x="630" 
d="M499 710h141l-265 -461v-249h-121v249l-265 461h140l184 -336h2zM189 941h124l63 -171h-107z" />
    <glyph glyph-name="ygrave" unicode="&#x1ef3;" horiz-adv-x="545" 
d="M126 -208l88 212l-209 515h127l141 -376l143 376h124l-296 -727h-118zM148 760h124l63 -171h-107z" />
    <glyph glyph-name="endash" unicode="&#x2013;" horiz-adv-x="500" 
d="M500 315v-111h-500v111h500z" />
    <glyph glyph-name="emdash" unicode="&#x2014;" horiz-adv-x="1000" 
d="M1000 315v-111h-1000v111h1000z" />
    <glyph glyph-name="quoteleft" unicode="&#x2018;" horiz-adv-x="243" 
d="M152 454h-123l87 256h98z" />
    <glyph glyph-name="quoteright" unicode="&#x2019;" horiz-adv-x="243" 
d="M90 710h124l-87 -256h-98z" />
    <glyph glyph-name="quotesinglbase" unicode="&#x201a;" horiz-adv-x="243" 
d="M90 139h124l-87 -256h-98z" />
    <glyph glyph-name="quotedblleft" unicode="&#x201c;" horiz-adv-x="433" 
d="M342 454h-123l86 256h99zM152 454h-123l87 256h98z" />
    <glyph glyph-name="quotedblright" unicode="&#x201d;" horiz-adv-x="433" 
d="M90 710h124l-87 -256h-98zM280 710h124l-87 -256h-98z" />
    <glyph glyph-name="quotedblbase" unicode="&#x201e;" horiz-adv-x="433" 
d="M90 139h124l-87 -256h-98zM280 139h124l-87 -256h-98z" />
    <glyph glyph-name="dagger" unicode="&#x2020;" horiz-adv-x="534" 
d="M326 -80h-118v493h-169v106h169v191h118v-191h169v-106h-169v-493z" />
    <glyph glyph-name="daggerdbl" unicode="&#x2021;" horiz-adv-x="534" 
d="M208 710h118v-191h169v-106h-169v-196h169v-106h-169v-191h-118v191h-169v106h169v196h-169v106h169v191z" />
    <glyph glyph-name="bullet" unicode="&#x2022;" horiz-adv-x="517" 
d="M111 357q0 62 43 105t104 43q62 0 105 -43.5t43 -104.5t-43 -104t-105 -43t-104.5 43t-42.5 104z" />
    <glyph glyph-name="ellipsis" unicode="&#x2026;" horiz-adv-x="727" 
d="M118 -8q-35 0 -56.5 21.5t-21.5 55.5t22 55.5t56 21.5t56 -21.5t22 -55.5t-22 -55.5t-56 -21.5zM364 -8q-35 0 -56.5 21.5t-21.5 55.5t22 55.5t56 21.5q33 0 55 -21.5t22 -55.5t-22 -55.5t-55 -21.5zM609 -8q-35 0 -56.5 21.5t-21.5 55.5t22 55.5t56 21.5t56 -21.5
t22 -55.5t-22 -55.5t-56 -21.5z" />
    <glyph glyph-name="perthousand" unicode="&#x2030;" horiz-adv-x="1328" 
d="M237 0l392 710h89l-392 -710h-89zM170 489q0 -75 17 -106.5t51 -31.5t51 31.5t17 106.5q0 76 -17 108t-51 32t-51 -32t-17 -108zM76 489q0 106 40 166.5t122 60.5t122 -60.5t40 -166.5q0 -105 -40 -165t-122 -60t-122 60t-40 165zM649 220q0 -76 17 -107.5t51 -31.5
t51 31.5t17 107.5q0 75 -17 107t-51 32t-51 -32t-17 -107zM555 220q0 105 40 165.5t122 60.5t122 -60.5t40 -165.5q0 -106 -40 -166t-122 -60t-122 60t-40 166zM1021 220q0 -76 17 -107.5t52 -31.5q34 0 51 31.5t17 107.5q0 75 -17 107t-51 32q-35 0 -52 -31.5t-17 -107.5z
M927 220q0 105 40.5 165.5t122.5 60.5q81 0 121.5 -60.5t40.5 -165.5t-40.5 -165.5t-121.5 -60.5q-82 0 -122.5 60.5t-40.5 165.5z" />
    <glyph glyph-name="guilsinglleft" unicode="&#x2039;" horiz-adv-x="328" 
d="M50 261l109 214h118l-110 -214l110 -215h-118z" />
    <glyph glyph-name="guilsinglright" unicode="&#x203a;" horiz-adv-x="328" 
d="M169 475l108 -214l-108 -215h-119l110 215l-110 214h119z" />
    <glyph glyph-name="fraction" unicode="&#x2044;" horiz-adv-x="399" 
d="M-41 0l392 710h89l-392 -710h-89z" />
    <glyph glyph-name="zerosuperior" unicode="&#x2070;" horiz-adv-x="402" 
d="M133 652q0 -75 17 -106.5t51 -31.5t51 31.5t17 106.5q0 76 -17 108t-51 32t-51 -32t-17 -108zM39 652q0 106 40 166.5t122 60.5t122 -60.5t40 -166.5q0 -105 -40 -165t-122 -60t-122 60t-40 165z" />
    <glyph glyph-name="foursuperior" unicode="&#x2074;" horiz-adv-x="396" 
d="M367 606v-79h-57v-91h-85v91h-195v76l187 266h93v-263h57zM225 755l-105 -149h105v149z" />
    <glyph glyph-name="fivesuperior" unicode="&#x2075;" horiz-adv-x="397" 
d="M41 570h94q6 -60 62 -60q31 0 48 18.5t17 51.5q0 31 -17 49.5t-48 18.5q-48 0 -60 -41h-86l36 262h244v-87h-171l-10 -69q2 2 9.5 5t22 6.5t29.5 3.5q71 0 108 -43.5t37 -104.5q0 -68 -44.5 -110.5t-115.5 -42.5q-66 0 -107.5 39t-47.5 104z" />
    <glyph glyph-name="sixsuperior" unicode="&#x2076;" horiz-adv-x="391" 
d="M184 869h120q-92 -89 -127 -146q1 0 6.5 2.5t13.5 4t16 1.5q68 0 107 -43t39 -108t-43.5 -109t-114.5 -44q-74 0 -117 45.5t-43 115.5q0 126 143 281zM264 580q0 31 -17.5 51t-45.5 20q-29 0 -47 -19.5t-18 -51.5q0 -31 18 -50.5t47 -19.5q28 0 45.5 19.5t17.5 50.5z" />
    <glyph glyph-name="sevensuperior" unicode="&#x2077;" horiz-adv-x="351" 
d="M30 735v134h299v-76q-58 -74 -91.5 -157.5t-56.5 -199.5h-98q44 217 142 354h-110v-55h-85z" />
    <glyph glyph-name="eightsuperior" unicode="&#x2078;" horiz-adv-x="388" 
d="M194 506q30 0 46 15t16 39t-16.5 39t-45.5 15t-45.5 -15t-16.5 -39t16 -39t46 -15zM194 698q27 0 42 14t15 37q0 21 -15 35t-42 14t-42 -14t-15 -35q0 -23 15 -37t42 -14zM194 426q-73 0 -113.5 36t-40.5 94q0 70 53 103q-44 35 -44 92q0 56 39.5 91.5t105.5 35.5
t105.5 -35.5t39.5 -91.5q0 -57 -45 -92q54 -33 54 -103q0 -58 -40.5 -94t-113.5 -36z" />
    <glyph glyph-name="ninesuperior" unicode="&#x2079;" horiz-adv-x="391" 
d="M207 436h-120q94 92 127 147q-2 0 -7.5 -2.5t-13.5 -4t-16 -1.5q-68 0 -107 42.5t-39 107.5t44 109.5t115 44.5q74 0 117 -46t43 -116q0 -124 -143 -281zM126 725q0 -31 18 -51t46 -20t46 19.5t18 51.5q0 31 -18 50.5t-46 19.5t-46 -19.5t-18 -50.5z" />
    <glyph glyph-name="zeroinferior" unicode="&#x2080;" horiz-adv-x="402" 
d="M133 57q0 -76 17 -107.5t51 -31.5t51 31.5t17 107.5q0 75 -17 107t-51 32t-51 -32t-17 -107zM39 57q0 105 40 165.5t122 60.5t122 -60.5t40 -165.5q0 -106 -40 -166t-122 -60t-122 60t-40 166z" />
    <glyph glyph-name="oneinferior" unicode="&#x2081;" horiz-adv-x="286" 
d="M206 274v-433h-93v341h-85v68l102 24h76z" />
    <glyph glyph-name="twoinferior" unicode="&#x2082;" horiz-adv-x="390" 
d="M347 -159h-303v71l168 145q41 36 41 79q0 26 -15 43t-44 17q-28 0 -44 -17t-16 -47l2 -21h-93q-1 10 -1 22q0 66 43 108t109 42q69 0 111 -41t42 -100q0 -46 -18 -79t-60 -67l-84 -68h162v-87z" />
    <glyph glyph-name="threeinferior" unicode="&#x2083;" horiz-adv-x="388" 
d="M142 18v77h46q30 0 46 14t16 39q0 22 -15 36t-42 14q-28 0 -43.5 -16.5t-16.5 -43.5h-91q2 62 42.5 103.5t108.5 41.5q71 0 109 -34t38 -92q0 -69 -56 -96q62 -27 62 -98q0 -58 -43.5 -95t-111.5 -37q-67 0 -107 38t-43 102h90q5 -55 60 -55q25 0 40.5 14t15.5 37
q0 51 -63 51h-42z" />
    <glyph glyph-name="fourinferior" unicode="&#x2084;" horiz-adv-x="396" 
d="M367 10v-79h-57v-90h-85v90h-195v76l187 266h93v-263h57zM225 159l-105 -149h105v149z" />
    <glyph glyph-name="fiveinferior" unicode="&#x2085;" horiz-adv-x="397" 
d="M41 -24h94q6 -59 62 -59q31 0 48 18.5t17 51.5q0 31 -17 49t-48 18q-45 0 -60 -41h-86l36 262h244v-87h-171l-10 -69q2 2 9.5 5t22 6.5t29.5 3.5q71 0 108 -43.5t37 -103.5q0 -68 -44.5 -111t-115.5 -43q-66 0 -107.5 39t-47.5 104z" />
    <glyph glyph-name="sixinferior" unicode="&#x2086;" horiz-adv-x="391" 
d="M184 275h120q-92 -89 -127 -146q1 0 6.5 2.5t13.5 4t16 1.5q68 0 107 -43t39 -107q0 -66 -43.5 -110t-114.5 -44q-74 0 -117 45.5t-43 116.5q0 127 143 280zM264 -13q0 31 -17.5 50.5t-45.5 19.5q-29 0 -47 -19.5t-18 -50.5q0 -32 18 -51t47 -19q28 0 45.5 19.5
t17.5 50.5z" />
    <glyph glyph-name="seveninferior" unicode="&#x2087;" horiz-adv-x="351" 
d="M30 139v134h299v-76q-58 -74 -91.5 -157.5t-56.5 -199.5h-98q44 217 142 354h-110v-55h-85z" />
    <glyph glyph-name="eightinferior" unicode="&#x2088;" horiz-adv-x="388" 
d="M194 -89q30 0 46 15t16 39t-16.5 39t-45.5 15t-45.5 -15t-16.5 -39t16 -39t46 -15zM194 103q27 0 42 14t15 37q0 21 -15 35t-42 14t-42 -14t-15 -35q0 -23 15 -37t42 -14zM194 -169q-73 0 -113.5 36t-40.5 94q0 70 53 103q-44 35 -44 92q0 56 39.5 91.5t105.5 35.5
t105.5 -35.5t39.5 -91.5q0 -58 -45 -92q54 -33 54 -103q0 -58 -40.5 -94t-113.5 -36z" />
    <glyph glyph-name="nineinferior" unicode="&#x2089;" horiz-adv-x="391" 
d="M207 -159h-120q92 89 127 146q-2 0 -7.5 -2.5t-13.5 -4t-16 -1.5q-67 0 -106.5 43t-39.5 107q0 66 44 110t115 44q74 0 117 -46t43 -116q0 -125 -143 -280zM126 129q0 -31 18 -50.5t46 -19.5q29 0 46.5 19.5t17.5 50.5t-17.5 50.5t-46.5 19.5q-28 0 -46 -19.5t-18 -50.5z
" />
    <glyph glyph-name="Euro" unicode="&#x20ac;" 
d="M47 235v86h57q0 1 -0.5 14t-0.5 21t0.5 20.5t0.5 13.5h-57v86h68q28 120 107 184.5t197 64.5q33 0 64 -4.5t45 -9.5l15 -5v-112q-51 22 -124 22q-143 0 -179 -140h196v-86h-210q0 -1 -0.5 -14t-0.5 -20q0 -24 1 -35h210v-86h-196q36 -140 179 -140q32 0 63 5.5t46 11.5
l15 5v-112q-50 -19 -124 -19q-119 0 -198 64t-105 185h-69z" />
    <glyph glyph-name="trademark" unicode="&#x2122;" horiz-adv-x="852" 
d="M598 553l122 157h85v-410h-90v277l-115 -146h-4l-116 146v-277h-90v410h85zM345 710v-86h-117v-324h-92v324h-117v86h326z" />
    <glyph glyph-name="minus" unicode="&#x2212;" 
d="M552 315v-112h-522v112h522z" />
    <glyph glyph-name="approxequal" unicode="&#x2248;" 
d="M27 319q2 4 5 11t16.5 25t30.5 32t47.5 25t65.5 11q49 0 108 -23t91 -23q28 0 47.5 12t25.5 24l5 12l85 -53q-2 -4 -5 -11t-16.5 -25.5t-30.5 -32t-47 -25t-65 -11.5q-46 0 -106.5 23t-92.5 23q-18 0 -32.5 -5t-22.5 -11.5t-13.5 -13.5t-7.5 -12l-2 -5zM27 119q2 4 5 11
t16.5 25.5t30.5 32t47.5 25t65.5 11.5q49 0 108 -23t91 -23q28 0 47.5 12t25.5 24l5 11l85 -53q-2 -4 -5 -11t-16.5 -25t-30.5 -32t-47 -25t-65 -11q-46 0 -106.5 23t-92.5 23q-28 0 -47.5 -12t-25.5 -24l-5 -12z" />
    <glyph glyph-name="notequal" unicode="&#x2260;" 
d="M552 210v-112h-263l-41 -98h-127l41 98h-132v112h175l42 98h-217v113h262l41 98h127l-41 -98h133v-113h-178l-42 -98h220z" />
    <glyph glyph-name="lessequal" unicode="&#x2264;" 
d="M210 0l-190 259l190 260h140l-155 -204h368v-111h-368l155 -204h-140z" />
    <glyph glyph-name="greaterequal" unicode="&#x2265;" 
d="M563 259l-190 -259h-140l155 204h-368v111h368l-155 204h140z" />
    <glyph glyph-name="hyphen.cap" horiz-adv-x="406" 
d="M362 416v-111h-318v111h318z" />
    <glyph glyph-name="exclamdown.cap" horiz-adv-x="270" 
d="M86 509h98l21 -510h-140zM135 717q34 0 56 -21.5t22 -55.5t-22 -55.5t-56 -21.5t-56 21.5t-22 55.5t21.5 55.5t56.5 21.5z" />
    <glyph glyph-name="questiondown.cap" horiz-adv-x="525" 
d="M487 195q0 -89 -63 -149.5t-164 -60.5q-105 0 -165 58t-60 146q0 46 18.5 86t45 67.5t53 51.5t45 49.5t18.5 50.5l-2 22h116q3 -11 3 -23q0 -42 -18 -78t-44 -61.5t-52 -49.5t-44 -51.5t-18 -57.5q0 -46 27.5 -73.5t76.5 -27.5t78 30.5t29 78.5l-5 45h120q5 -20 5 -53z
M266 718q35 0 56.5 -21.5t21.5 -55.5t-22 -55.5t-56 -21.5t-56 21.5t-22 55.5t22 55.5t56 21.5z" />
    <glyph glyph-name="endash.cap" horiz-adv-x="500" 
d="M500 416v-111h-500v111h500z" />
    <glyph glyph-name="emdash.cap" horiz-adv-x="1000" 
d="M1000 416v-111h-1000v111h1000z" />
    <glyph glyph-name="periodcentered.cap" horiz-adv-x="245" 
d="M123 280q-36 0 -59.5 23t-23.5 58q0 36 23.5 59.5t59.5 23.5q35 0 58.5 -23.5t23.5 -59.5q0 -35 -23.5 -58t-58.5 -23z" />
    <glyph glyph-name="parenleft.cap" horiz-adv-x="348" 
d="M211 355q0 -249 111 -458h-120q-112 183 -112 458t112 458h120q-111 -210 -111 -458z" />
    <glyph glyph-name="parenright.cap" horiz-adv-x="348" 
d="M137 355q0 248 -111 458h120q112 -183 112 -458t-112 -458h-120q111 209 111 458z" />
    <glyph glyph-name="bracketleft.cap" horiz-adv-x="325" 
d="M303 5v-109h-231v916h231v-109h-120v-698h120z" />
    <glyph glyph-name="bracketright.cap" horiz-adv-x="325" 
d="M22 -104v109h120v698h-120v109h231v-916h-231z" />
    <glyph glyph-name="braceleft.cap" horiz-adv-x="342" 
d="M275 -104q-166 0 -166 171v181q0 55 -51 55h-18v102h18q51 0 51 55v181q0 171 166 171l45 -3v-109q-18 3 -38 3q-34 0 -47.5 -16t-13.5 -50v-176q0 -75 -47 -107q47 -33 47 -106v-177q0 -34 13.5 -50t47.5 -16l38 3v-109q-18 -3 -45 -3z" />
    <glyph glyph-name="braceright.cap" horiz-adv-x="342" 
d="M67 -104l-45 3v109q18 -3 37 -3q34 0 48 16t14 50v177q0 73 46 106q-46 31 -46 107v176q0 34 -14 50t-48 16l-37 -3v109q18 3 45 3q165 0 165 -171v-181q0 -55 51 -55h19v-102h-19q-51 0 -51 -55v-181q0 -171 -165 -171z" />
    <glyph glyph-name="at.cap" horiz-adv-x="820" 
d="M488 378q0 83 -70 83q-46 0 -72.5 -36.5t-26.5 -95.5q0 -85 75 -85q44 0 69 40t25 94zM628 140h101q-51 -75 -134.5 -117.5t-179.5 -42.5q-171 0 -271 102t-100 267q0 162 107.5 271t271.5 109q158 0 256 -87.5t98 -227.5q0 -115 -61.5 -180.5t-140.5 -65.5q-67 0 -91 50
q-38 -50 -107 -50q-68 0 -108.5 43t-40.5 117q0 88 47 150.5t127 62.5q77 0 111 -54l9 40h80l-36 -181q-11 -53 -11 -59q0 -19 10 -31t27 -12q45 0 74.5 47t29.5 118q0 116 -76 179.5t-199 63.5q-131 0 -210 -85t-79 -217q0 -137 78 -215t210 -78q62 0 118 23.5t90 59.5z
" />
    <glyph glyph-name="zero.slash" 
d="M291 -15q-124 0 -189.5 100.5t-65.5 269.5t65.5 269.5t189.5 100.5q123 0 189 -100.5t66 -269.5t-66 -269.5t-189 -100.5zM291 610q-131 0 -131 -255q0 -100 23 -158l162 398q-24 15 -54 15zM291 100q131 0 131 255q0 98 -24 155l-161 -397q23 -13 54 -13z" />
    <glyph glyph-name="commaaccentcomb" horiz-adv-x="235" 
d="M90 -50l101 6q7 -19 7 -53q0 -33 -10.5 -62t-25.5 -46.5t-30 -31t-26 -19.5l-10 -5l-59 70q3 1 7 3.5t14.5 11t19 18t15 25.5t6.5 34q0 12 -2.5 24.5t-4.5 18.5z" />
    <glyph glyph-name="zero.onum" horiz-adv-x="638" 
d="M162 269q0 -77 43 -125t114 -48q70 0 113 48t43 125q0 78 -43 126t-113 48q-71 0 -114 -48t-43 -126zM40 269q0 118 77.5 200t201.5 82t201.5 -82t77.5 -200q0 -117 -77.5 -199t-201.5 -82t-201.5 82t-77.5 199z" />
    <glyph glyph-name="one.onum" horiz-adv-x="370" 
d="M255 0h-119v419h-96v80l119 40h96v-539z" />
    <glyph glyph-name="two.onum" horiz-adv-x="540" 
d="M178 324h-121q-2 13 -2 26q0 90 57 145.5t155 55.5q90 0 149 -48.5t59 -136.5q0 -66 -40 -114t-119 -100l-69 -46h249v-106h-440v91l168 118q71 50 100 81t29 72q0 36 -23 59t-66 23t-66 -25t-23 -68z" />
    <glyph glyph-name="three.onum" horiz-adv-x="551" 
d="M205 164v104h65q51 0 78 23.5t27 60.5q0 39 -25 63.5t-73 24.5t-73.5 -29.5t-26.5 -71.5h-120q2 93 63 152t157 59q101 0 159 -52.5t58 -138.5q0 -44 -22 -81.5t-63 -57.5q92 -38 92 -148q0 -88 -62.5 -147t-164.5 -59q-100 0 -163 60t-67 157h119q3 -47 32 -76.5
t79 -29.5q48 0 77.5 25.5t29.5 69.5t-28 68t-83 24h-65z" />
    <glyph glyph-name="four.onum" horiz-adv-x="549" 
d="M516 136v-106h-73v-150h-112v150h-313v90l302 419h123v-403h73zM155 136h176v241h-1z" />
    <glyph glyph-name="five.onum" horiz-adv-x="543" 
d="M63 161l54 378h354v-106h-262l-21 -143q35 35 109 35q104 0 157.5 -65.5t53.5 -155.5q0 -98 -65 -163t-168 -65q-96 0 -157.5 54t-69.5 143h118q7 -39 35.5 -65t73.5 -26q52 0 82.5 32.5t30.5 89.5q0 55 -30 87.5t-83 32.5q-42 0 -67.5 -21t-34.5 -42h-110z" />
    <glyph glyph-name="six.onum" horiz-adv-x="554" 
d="M268 659h149q-141 -137 -195 -240q35 21 85 21q98 0 156 -64t58 -159q0 -97 -66 -163.5t-171 -66.5q-108 0 -173 69t-65 173q0 194 222 430zM401 217q0 55 -32 89t-85 34q-52 0 -84 -34.5t-32 -88.5t32 -88.5t84 -34.5q53 0 85 34.5t32 88.5z" />
    <glyph glyph-name="seven.onum" horiz-adv-x="498" 
d="M473 539v-108q-88 -132 -132 -262.5t-61 -288.5h-126q35 299 181 549h-187v-91h-118v201h443z" />
    <glyph glyph-name="eight.onum" horiz-adv-x="552" 
d="M276 93q52 0 79.5 27t27.5 68q0 43 -28.5 69t-78.5 26q-49 0 -77.5 -26t-28.5 -69q0 -41 27 -68t79 -27zM276 388q46 0 71.5 25t25.5 65q0 36 -24.5 61.5t-72.5 25.5q-47 0 -72 -25.5t-25 -61.5q0 -40 26 -65t71 -25zM276 -13q-106 0 -166 53.5t-60 140.5q0 48 22.5 91
t66.5 67q-72 51 -72 143q0 81 56 134.5t153 53.5q98 0 154 -53.5t56 -134.5q0 -92 -72 -143q44 -24 66 -66.5t22 -91.5q0 -87 -59.5 -140.5t-166.5 -53.5z" />
    <glyph glyph-name="nine.onum" horiz-adv-x="554" 
d="M287 -121h-150q139 133 196 240q-35 -21 -86 -21q-98 0 -156 64t-58 159q0 97 66.5 163.5t171.5 66.5q108 0 172.5 -69t64.5 -173q0 -193 -221 -430zM154 321q0 -55 32 -89t85 -34q52 0 84 34.5t32 88.5t-32 88.5t-84 34.5q-53 0 -85 -34.5t-32 -88.5z" />
    <glyph glyph-name="zero.pnum" 
d="M291 -15q-124 0 -189.5 100.5t-65.5 269.5t65.5 269.5t189.5 100.5q123 0 189 -100.5t66 -269.5t-66 -269.5t-189 -100.5zM291 610q-131 0 -131 -255t131 -255t131 255t-131 255z" />
    <glyph glyph-name="one.pnum" horiz-adv-x="394" 
d="M274 710v-710h-122v590h-112v80l136 40h98z" />
    <glyph glyph-name="two.pnum" horiz-adv-x="556" 
d="M522 0h-483v101l280 267q67 63 67 135q0 50 -31.5 80t-83.5 30q-56 0 -85 -33t-29 -87l3 -33h-121q-3 15 -3 35q0 103 64.5 166.5t170.5 63.5q110 0 173.5 -61t63.5 -158q0 -70 -27.5 -122.5t-92.5 -110.5l-182 -161h316v-112z" />
    <glyph glyph-name="three.pnum" horiz-adv-x="564" 
d="M212 312v103h64q61 0 92.5 27t31.5 70q0 46 -30 74.5t-86 28.5t-85 -32.5t-31 -78.5h-119q2 94 67 157.5t169 63.5q108 0 170.5 -56.5t62.5 -149.5q0 -112 -103 -152q112 -40 112 -161q0 -95 -68 -158t-178 -63q-108 0 -175 61.5t-72 164.5h120q4 -52 36.5 -84.5
t90.5 -32.5q57 0 91 30.5t34 81.5q0 50 -33 78t-96 28h-65z" />
    <glyph glyph-name="four.pnum" horiz-adv-x="581" 
d="M551 261v-106h-76v-155h-113v155h-340v91l326 464h127v-449h76zM362 547h-1l-203 -286h204v286z" />
    <glyph glyph-name="five.pnum" horiz-adv-x="570" 
d="M57 298l58 412h382v-112h-289l-24 -172q16 16 49 31t75 15q112 0 168.5 -70.5t56.5 -167.5q0 -108 -69 -178.5t-180 -70.5q-105 0 -170.5 57.5t-73.5 153.5h123q7 -42 38 -71t83 -29q58 0 92.5 38t34.5 100q0 60 -34 96.5t-93 36.5q-35 0 -63 -16t-39 -29.5t-15 -23.5
h-110z" />
    <glyph glyph-name="six.pnum" horiz-adv-x="570" 
d="M292 -15q-114 0 -183 73.5t-69 182.5q0 115 65 229t182 240h150q-156 -151 -224 -277q45 31 103 31q103 0 165 -68t62 -167q0 -102 -70.5 -173t-180.5 -71zM419 229q0 60 -35.5 98t-91.5 38t-91.5 -37.5t-35.5 -98.5t35.5 -99t91.5 -38t91.5 38t35.5 99z" />
    <glyph glyph-name="seven.pnum" horiz-adv-x="513" 
d="M143 509h-118v201h468v-108q-92 -140 -137 -281t-64 -321h-127q39 350 190 600h-212v-91z" />
    <glyph glyph-name="eight.pnum" horiz-adv-x="575" 
d="M288 -15q-114 0 -179 57t-65 150q0 54 26 101.5t76 73.5q-41 25 -62.5 67t-21.5 90q0 87 61 144t165 57q105 0 166 -57.5t61 -145.5q0 -48 -21.5 -89.5t-64.5 -65.5q50 -27 76 -74t26 -101q0 -93 -64.5 -150t-178.5 -57zM288 308q-55 0 -88 -30t-33 -78q0 -46 31.5 -77.5
t89.5 -31.5t89.5 31.5t31.5 77.5q0 48 -33 78t-88 30zM288 417q52 0 82.5 28t30.5 74q0 41 -29.5 71t-83.5 30t-83 -29t-29 -70q0 -46 29.5 -75t82.5 -29z" />
    <glyph glyph-name="nine.pnum" horiz-adv-x="570" 
d="M278 725q114 0 183 -73.5t69 -182.5q0 -115 -65 -229t-182 -240h-150q157 153 224 276q-47 -31 -103 -31q-103 0 -165 68t-62 168q0 102 70.5 173t180.5 71zM151 481q0 -61 35.5 -99t91.5 -38t91.5 38t35.5 99t-35.5 99t-91.5 38t-91.5 -38t-35.5 -99z" />
    <glyph glyph-name="zero.dnom" horiz-adv-x="402" 
d="M133 215q0 -76 17 -107.5t51 -31.5t51 31.5t17 107.5t-17 108t-51 32t-51 -32t-17 -108zM39 215q0 106 40 166.5t122 60.5t122 -60.5t40 -166.5t-40 -166t-122 -60t-122 60t-40 166z" />
    <glyph glyph-name="one.dnom" horiz-adv-x="286" 
d="M206 432v-432h-93v341h-85v67l102 24h76z" />
    <glyph glyph-name="two.dnom" horiz-adv-x="390" 
d="M347 0h-303v72l168 145q41 34 41 78q0 26 -15 43t-44 17q-28 0 -44 -17t-16 -46l2 -22h-93q-1 10 -1 23q0 66 43 107.5t109 41.5q69 0 111 -40.5t42 -100.5q0 -46 -18 -79t-60 -67l-84 -68h162v-87z" />
    <glyph glyph-name="three.dnom" horiz-adv-x="388" 
d="M142 176v77h46q30 0 46 14.5t16 39.5q0 21 -15 35t-42 14q-28 0 -43.5 -16t-16.5 -43h-91q2 62 42.5 103.5t108.5 41.5q71 0 109 -34.5t38 -92.5q0 -67 -56 -96q62 -25 62 -98q0 -57 -44 -94.5t-111 -37.5t-107 38t-43 102h90q5 -54 60 -54q25 0 40.5 14t15.5 36
q0 51 -63 51h-42z" />
    <glyph glyph-name="four.dnom" horiz-adv-x="396" 
d="M367 169v-79h-57v-90h-85v90h-195v76l187 266h93v-263h57zM225 318l-105 -149h105v149z" />
    <glyph glyph-name="five.dnom" horiz-adv-x="397" 
d="M41 132h94q6 -59 62 -59q31 0 48 18.5t17 51.5q0 31 -17 49t-48 18q-45 0 -60 -41h-86l36 262h244v-87h-171l-10 -69q2 2 9.5 5t22 6.5t29.5 3.5q71 0 108 -43.5t37 -103.5q0 -68 -44.5 -111t-115.5 -43q-66 0 -107.5 39t-47.5 104z" />
    <glyph glyph-name="six.dnom" horiz-adv-x="391" 
d="M184 431h120q-92 -89 -127 -146q1 0 6.5 2.5t13.5 4t16 1.5q68 0 107 -43t39 -107q0 -66 -43.5 -110t-114.5 -44q-74 0 -117 45.5t-43 116.5q0 127 143 280zM264 143q0 31 -17.5 50.5t-45.5 19.5q-29 0 -47 -19t-18 -51q0 -31 18 -50.5t47 -19.5q28 0 45.5 19.5
t17.5 50.5z" />
    <glyph glyph-name="seven.dnom" horiz-adv-x="351" 
d="M30 298v134h299v-76q-58 -74 -91.5 -157.5t-56.5 -198.5h-98q44 216 142 353h-110v-55h-85z" />
    <glyph glyph-name="eight.dnom" horiz-adv-x="388" 
d="M194 70q30 0 46 15t16 39q0 23 -16.5 38.5t-45.5 15.5t-45.5 -15.5t-16.5 -38.5q0 -24 16 -39t46 -15zM194 261q27 0 42 14t15 37q0 21 -15 35t-42 14t-42 -14t-15 -35q0 -23 15 -37t42 -14zM194 -11q-73 0 -113.5 36t-40.5 94q0 70 53 103q-44 36 -44 92t39.5 92
t105.5 36t105.5 -36t39.5 -92t-45 -92q54 -33 54 -103q0 -58 -40.5 -94t-113.5 -36z" />
    <glyph glyph-name="nine.dnom" horiz-adv-x="391" 
d="M207 0h-120q95 93 127 146q-2 0 -7.5 -2.5t-13.5 -4t-16 -1.5q-68 0 -107 43t-39 108t44 109t115 44q74 0 117 -45.5t43 -115.5q0 -126 -143 -281zM126 289q0 -31 18 -51t46 -20t46 19.5t18 51.5q0 31 -18 50.5t-46 19.5t-46 -19.5t-18 -50.5z" />
    <glyph glyph-name="zero.numerator" horiz-adv-x="402" 
d="M133 493q0 -76 17 -107.5t51 -31.5t51 31.5t17 107.5q0 75 -17 107t-51 32t-51 -32t-17 -107zM39 493q0 105 40 165.5t122 60.5t122 -60.5t40 -165.5q0 -106 -40 -166t-122 -60t-122 60t-40 166z" />
    <glyph glyph-name="one.numerator" horiz-adv-x="286" 
d="M206 710v-433h-93v341h-85v68l102 24h76z" />
    <glyph glyph-name="two.numerator" horiz-adv-x="390" 
d="M347 277h-303v72l168 145q41 36 41 79q0 26 -15 43t-44 17q-28 0 -44 -17t-16 -47l2 -21h-93q-1 10 -1 22q0 66 43 108t109 42q69 0 111 -41t42 -101q0 -45 -18 -78t-60 -67l-84 -69h162v-87z" />
    <glyph glyph-name="three.numerator" horiz-adv-x="388" 
d="M142 454v77h46q30 0 46 14t16 39q0 22 -15 36t-42 14q-28 0 -43.5 -16.5t-16.5 -43.5h-91q2 62 42.5 103.5t108.5 41.5q71 0 109 -34t38 -92q0 -69 -56 -96q62 -27 62 -98q0 -58 -43.5 -95t-111.5 -37q-67 0 -107 38t-43 102h90q5 -55 60 -55q25 0 40.5 14t15.5 37
q0 51 -63 51h-42z" />
    <glyph glyph-name="four.numerator" horiz-adv-x="396" 
d="M367 447v-79h-57v-91h-85v91h-195v76l187 266h93v-263h57zM225 596l-105 -149h105v149z" />
    <glyph glyph-name="five.numerator" horiz-adv-x="397" 
d="M41 411h94q6 -60 62 -60q31 0 48 18.5t17 51.5q0 31 -17 49.5t-48 18.5q-45 0 -60 -41h-86l36 262h244v-87h-171l-10 -69q2 2 9.5 5t22 6.5t29.5 3.5q71 0 108 -43.5t37 -104.5q0 -68 -44.5 -110.5t-115.5 -42.5q-66 0 -107.5 39t-47.5 104z" />
    <glyph glyph-name="six.numerator" horiz-adv-x="391" 
d="M184 710h120q-92 -89 -127 -146q1 0 6.5 2.5t13.5 4t16 1.5q68 0 107 -43t39 -108t-43.5 -109t-114.5 -44q-74 0 -117 45.5t-43 115.5q0 126 143 281zM264 421q0 31 -17.5 51t-45.5 20q-29 0 -47 -19.5t-18 -51.5q0 -31 18 -50.5t47 -19.5q28 0 45.5 19.5t17.5 50.5z" />
    <glyph glyph-name="seven.numerator" horiz-adv-x="351" 
d="M30 576v134h299v-76q-58 -74 -91.5 -157.5t-56.5 -199.5h-98q44 217 142 354h-110v-55h-85z" />
    <glyph glyph-name="eight.numerator" horiz-adv-x="388" 
d="M194 347q30 0 46 15t16 39t-16.5 39t-45.5 15t-45.5 -15t-16.5 -39t16 -39t46 -15zM194 539q27 0 42 14t15 37q0 21 -15 35t-42 14t-42 -14t-15 -35q0 -23 15 -37t42 -14zM194 267q-73 0 -113.5 36t-40.5 94q0 70 53 103q-44 35 -44 92q0 56 39.5 91.5t105.5 35.5
t105.5 -35.5t39.5 -91.5q0 -58 -45 -92q54 -33 54 -103q0 -58 -40.5 -94t-113.5 -36z" />
    <glyph glyph-name="nine.numerator" horiz-adv-x="391" 
d="M207 277h-120q94 92 127 147q-2 0 -7.5 -2.5t-13.5 -4t-16 -1.5q-68 0 -107 42.5t-39 107.5t44 109.5t115 44.5q74 0 117 -46t43 -116q0 -124 -143 -281zM126 566q0 -31 18 -51t46 -20t46 19.5t18 51.5q0 31 -18 50.5t-46 19.5t-46 -19.5t-18 -50.5z" />
    <glyph glyph-name="Euro.oldstyle" horiz-adv-x="580" 
d="M53 204v90h68q-1 11 -1 34v35h-67v90h81q28 103 100.5 160t177.5 57q33 0 63 -5t43 -10l14 -5v-114q-51 23 -120 23q-113 0 -151 -106h180v-90h-198q-1 -12 -1 -35q0 -24 1 -34h198v-90h-179q36 -106 150 -106q30 0 60 5.5t45 10.5l15 6v-113q-46 -20 -120 -20
q-106 0 -178 57t-100 160h-81z" />
    <glyph glyph-name="dollar.oldstyle" horiz-adv-x="591" 
d="M271 -125v120q-105 8 -160.5 68.5t-57.5 145.5h119q2 -41 26 -71.5t73 -38.5v181l-25 7q-171 46 -171 190q0 72 52 124.5t144 60.5v104h64v-104q93 -11 142.5 -70.5t51.5 -141.5h-119q-8 79 -75 100v-165l14 -3q95 -27 137.5 -74.5t42.5 -127.5q0 -72 -51.5 -124
t-142.5 -61v-120h-64zM194 481q0 -30 17 -48t60 -30v153q-38 -5 -57.5 -25t-19.5 -50zM409 180q0 60 -74 81v-160q37 9 55.5 30t18.5 49z" />
    <glyph glyph-name="cent.oldstyle" horiz-adv-x="580" 
d="M261 -15v106q-90 11 -145 78.5t-55 161.5q0 93 55 160.5t145 78.5v109h62v-109q82 -10 131 -64t58 -120h-115q-8 29 -27.5 49t-46.5 27v-264q58 16 74 78h114q-9 -68 -58 -122t-130 -63v-106h-62zM173 331q0 -53 23.5 -88.5t64.5 -45.5v267q-40 -10 -64 -46t-24 -87z" />
    <glyph glyph-name="sterling.oldstyle" horiz-adv-x="586" 
d="M76 248v84h55q-31 74 -31 136q0 88 59.5 145t160.5 57q99 0 160 -58t61 -154l-4 -35h-118q3 13 3 33q0 48 -25.5 77t-76.5 29q-48 0 -75 -27t-27 -73q0 -47 39 -130h155v-84h-131q3 -8 3 -28q0 -55 -27 -92q19 -3 70.5 -20t84.5 -17q26 0 49.5 13.5t34.5 26.5l10 13
l68 -70q-2 -4 -6 -10t-20 -21.5t-34.5 -27.5t-50 -21.5t-67.5 -9.5q-47 0 -106.5 21t-96.5 21q-23 0 -45 -12t-32 -24l-11 -11l-66 72q3 5 10 13.5t31 27.5t52 28q46 29 46 85q0 23 -8 43h-94z" />
    <glyph glyph-name="florin.oldstyle" horiz-adv-x="458" 
d="M287 310l-63 -317q-33 -163 -182 -163q-21 0 -43 5.5t-33.5 10t-14.5 7.5l41 96q2 -2 8 -5t17.5 -6t22.5 -3q55 0 69 71l59 304h-85l19 103h86l20 95q33 162 181 162q21 0 43.5 -5.5t33.5 -10t14 -6.5l-40 -96q-20 13 -48 13q-30 0 -46 -17t-23 -53l-16 -82h85l-19 -103
h-86z" />
    <glyph glyph-name="yen.oldstyle" horiz-adv-x="521" 
d="M9 671h129l121 -251h2l121 251h130l-169 -324h108v-84h-130v-65h130v-83h-130v-115h-121v115h-131v83h131v65h-131v84h107z" />
    <glyph glyph-name="zero.onumtab" horiz-adv-x="552" 
d="M514 269q0 -125 -64.5 -203.5t-173.5 -78.5t-173.5 78.5t-64.5 203.5t64.5 203.5t173.5 78.5t173.5 -78.5t64.5 -203.5zM392 269q0 80 -31.5 127t-84.5 47t-84.5 -47t-31.5 -127t31.5 -127t84.5 -47t84.5 47t31.5 127z" />
    <glyph glyph-name="one.onumtab" horiz-adv-x="552" 
d="M511 101v-101h-440v101h159v318h-152v80l176 40h98v-438h159z" />
    <glyph glyph-name="two.onumtab" horiz-adv-x="552" 
d="M183 324h-121q-2 13 -2 26q0 90 57 145.5t155 55.5q90 0 149 -48.5t59 -136.5q0 -66 -40 -114t-119 -100l-69 -46h249v-106h-440v91l168 118q71 50 100 81t29 72q0 36 -23 59t-66 23t-66 -25t-23 -68z" />
    <glyph glyph-name="three.onumtab" horiz-adv-x="552" 
d="M208 164v104h64q52 0 79 23.5t27 60.5q0 39 -25 63.5t-73 24.5q-49 0 -74 -29t-27 -72h-119q2 93 63 152t157 59q100 0 158.5 -52.5t58.5 -138.5q0 -97 -86 -139q93 -38 93 -148q0 -88 -63 -147t-165 -59q-100 0 -162.5 60t-67.5 157h119q4 -47 32.5 -76.5t78.5 -29.5
q49 0 78 25.5t29 69.5t-28 68t-83 24h-64z" />
    <glyph glyph-name="four.onumtab" horiz-adv-x="552" 
d="M542 136v-106h-93v-150h-112v150h-314v90l303 419h123v-403h93zM161 136h176v241h-2z" />
    <glyph glyph-name="five.onumtab" horiz-adv-x="552" 
d="M62 161l54 378h354v-106h-262l-20 -143q35 35 109 35q104 0 157.5 -65.5t53.5 -155.5q0 -98 -65 -163t-168 -65q-96 0 -157.5 54t-69.5 143h118q7 -39 35.5 -65t73.5 -26q52 0 82 32.5t30 89.5q0 55 -30 87.5t-82 32.5q-42 0 -67.5 -21t-34.5 -42h-111z" />
    <glyph glyph-name="six.onumtab" horiz-adv-x="552" 
d="M261 659h149q-139 -133 -195 -240q33 21 85 21q98 0 156 -64t58 -159q0 -97 -66 -163.5t-171 -66.5q-108 0 -173 69t-65 173q0 194 222 430zM393 217q0 55 -31.5 89t-84.5 34t-85 -34.5t-32 -88.5t32.5 -88.5t84.5 -34.5q53 0 84.5 34t31.5 89z" />
    <glyph glyph-name="seven.onumtab" horiz-adv-x="552" 
d="M34 539h495v-108q-98 -117 -144.5 -242t-76.5 -309h-127q53 337 205 549h-234v-91h-118v201z" />
    <glyph glyph-name="eight.onumtab" horiz-adv-x="511" 
d="M256 93q52 0 79 27t27 68q0 43 -28.5 69t-77.5 26q-50 0 -78.5 -26t-28.5 -69q0 -41 27 -68t80 -27zM256 388q45 0 71 25t26 65q0 36 -25 61.5t-72 25.5q-48 0 -72.5 -25.5t-24.5 -61.5q0 -40 25.5 -65t71.5 -25zM256 -13q-107 0 -166.5 53.5t-59.5 140.5q0 49 22 91.5
t66 66.5q-72 51 -72 143q0 81 56 134.5t154 53.5q97 0 153 -53.5t56 -134.5q0 -92 -72 -143q44 -24 66.5 -67t22.5 -91q0 -87 -60 -140.5t-166 -53.5z" />
    <glyph glyph-name="nine.onumtab" horiz-adv-x="552" 
d="M291 -121h-150q139 133 196 240q-35 -21 -86 -21q-98 0 -156 64t-58 159q0 97 66.5 163.5t171.5 66.5q108 0 172.5 -69t64.5 -173q0 -193 -221 -430zM158 321q0 -55 32 -89t85 -34q52 0 84 34.5t32 88.5t-32 88.5t-84 34.5q-53 0 -85 -34.5t-32 -88.5z" />
    </font>
</defs>
</svg>
