<?xml version="1.0" standalone="no"?>
<!DOCTYPE svg PUBLIC "-//W3C//DTD SVG 1.1//EN" "http://www.w3.org/Graphics/SVG/1.1/DTD/svg11.dtd" >
<svg xmlns="http://www.w3.org/2000/svg" xmlns:xlink="http://www.w3.org/1999/xlink" version="1.1">
<metadata></metadata>
<defs>
<font id="paytone_oneregular" horiz-adv-x="1228" >
<font-face units-per-em="2048" ascent="1638" descent="-410" />
<missing-glyph horiz-adv-x="382" />
<glyph unicode="&#xfb01;" horiz-adv-x="1638" d="M51 772v254h129v86q0 227 109.5 344t306.5 117q158 0 293 -80l-15 -276q-119 47 -198 47q-61 0 -94 -30t-33 -85q0 -53 35 -123h839v-612q0 -47 26 -73t67 -26t83 25l23 -285q-45 -35 -117.5 -53t-150.5 -18q-172 0 -268.5 110.5t-96.5 300.5v377h-377v-772h-432v772 h-129zM977 1389q0 88 69.5 147t159.5 59q94 0 163 -61t69 -145q0 -90 -70 -149.5t-162 -59.5q-96 0 -162.5 60t-66.5 149z" />
<glyph unicode="&#xfb02;" horiz-adv-x="1619" d="M51 772v254h129v70q0 231 151.5 334.5t446.5 103.5q307 0 629 -119v-1007q0 -109 96 -109q45 0 88 25l25 -285q-133 -72 -281 -72q-168 0 -264 110.5t-96 301.5v829q-80 37 -191 37q-172 0 -172 -164v-55h258v-254h-258v-772h-432v772h-129z" />
<glyph horiz-adv-x="0" />
<glyph unicode="&#xd;" horiz-adv-x="681" />
<glyph unicode=" "  horiz-adv-x="382" />
<glyph unicode="&#x09;" horiz-adv-x="382" />
<glyph unicode="&#xa0;" horiz-adv-x="382" />
<glyph unicode="!" horiz-adv-x="624" d="M82 197q0 92 63.5 149t167.5 57q102 0 166 -60t64 -146q0 -96 -59.5 -152.5t-170.5 -56.5q-108 0 -169.5 59t-61.5 150zM96 1096v317h432v-317l-79 -580h-271z" />
<glyph unicode="&#x22;" horiz-adv-x="890" d="M61 1534h338l-57 -610h-238zM492 1534h337l-57 -610h-237z" />
<glyph unicode="#" horiz-adv-x="1302" d="M61 385l45 254h179l22 131h-176l45 254h176l68 385h272l-67 -385h166l67 385h272l-67 -385h178l-45 -254h-178l-23 -131h176l-45 -254h-176l-67 -385h-273l68 385h-166l-68 -385h-272l68 385h-179zM557 639h166l22 131h-165z" />
<glyph unicode="$" horiz-adv-x="1187" d="M82 989q0 168 117.5 274.5t324.5 125.5v194h174v-194q197 -16 379 -101l-106 -274q-102 68 -273 86v-275l25 -6q193 -49 298 -158.5t105 -261.5q0 -178 -111.5 -286.5t-316.5 -132.5v-154h-174v149q-244 10 -436 101l84 282q82 -43 177 -65.5t175 -28.5v287l-30 8 q-199 55 -305.5 167t-106.5 263zM418 991q0 -39 22.5 -64.5t83.5 -49.5v223q-106 -23 -106 -109zM698 276q97 25 97 99q0 43 -19.5 69.5t-77.5 49.5v-218z" />
<glyph unicode="%" horiz-adv-x="1810" d="M49 1030q0 117 48 208t134 141.5t195 50.5q117 0 200 -57.5t126 -150t43 -192.5q0 -117 -47.5 -208t-133.5 -141t-194 -50q-115 0 -199 54t-128 145.5t-44 199.5zM260 0l1004 1409h286l-1003 -1409h-287zM303 1030q0 -82 32 -140.5t85 -58.5q61 0 91 60.5t30 138.5 q0 80 -33 137.5t-88 57.5q-59 0 -88 -57.5t-29 -137.5zM1018 381q0 115 48 206t133 143t192 52q111 0 195.5 -58t129.5 -153.5t45 -201.5q0 -115 -47 -204t-131 -137t-192 -48q-115 0 -199 52t-129 143t-45 206zM1272 381q0 -82 31.5 -139.5t87.5 -57.5q57 0 86.5 60.5 t29.5 136.5q0 80 -31.5 136t-84.5 56q-57 0 -88 -56t-31 -136z" />
<glyph unicode="&#x26;" horiz-adv-x="1374" d="M57 365q0 262 285 395q-137 150 -137 297q0 98 55 180t155.5 129t231.5 47t230.5 -44t154.5 -124t55 -184q0 -119 -71.5 -218.5t-196.5 -150.5q35 -41 53 -67l84 -101q80 72 162 181l205 -195q-80 -133 -190 -231l241 -279h-411l-89 102q-168 -135 -370 -135 q-129 0 -230.5 50.5t-159 141.5t-57.5 206zM422 397q0 -57 32.5 -92t88.5 -35q82 0 125 43l-168 215q-78 -43 -78 -131zM563 1053q0 -37 23.5 -72t77.5 -76q57 27 79.5 58.5t22.5 89.5q0 43 -25.5 68.5t-70.5 25.5q-106 0 -107 -94z" />
<glyph unicode="'" horiz-adv-x="460" d="M61 1534h338l-57 -610h-238z" />
<glyph unicode="(" horiz-adv-x="854" d="M41 668q0 266 93 463.5t266 311t409 138.5v-258q-145 -25 -228 -192.5t-83 -462.5q0 -287 74.5 -465t236.5 -207v-260q-244 22 -417 145t-262 326t-89 461z" />
<glyph unicode=")" horiz-adv-x="854" d="M45 -4q147 25 230 197t83 475q0 287 -80.5 458.5t-232.5 196.5v258q250 -25 422 -146.5t259 -318t87 -448.5q0 -264 -91 -466t-264 -323t-413 -143v260z" />
<glyph unicode="*" horiz-adv-x="1095" d="M63 1022l109 217l277 -166l-23 336h250l-27 -334l269 168l114 -221l-319 -137l233 -246l-207 -166l-196 297l-193 -297l-205 168l234 244z" />
<glyph unicode="+" d="M102 354v318h347v354h331v-354h346v-318h-346v-354h-331v354h-347z" />
<glyph unicode="," horiz-adv-x="604" d="M92 0v383h420v-209q0 -236 -27.5 -339t-112.5 -142t-280 -39v240q104 0 137 4t43.5 24.5t10.5 77.5h-191z" />
<glyph unicode="-" horiz-adv-x="739" d="M94 354v320h551v-320h-551z" />
<glyph unicode="." horiz-adv-x="604" d="M72 197q0 92 63.5 149t167.5 57q102 0 165.5 -60t63.5 -146q0 -96 -59 -152.5t-170 -56.5q-108 0 -169.5 59t-61.5 150z" />
<glyph unicode="/" horiz-adv-x="983" d="M20 0l545 1409h398l-545 -1409h-398z" />
<glyph unicode="0" horiz-adv-x="1419" d="M68 692q0 203 82.5 364t229 252t331.5 91q182 0 328.5 -91t229.5 -253t83 -363q0 -203 -82 -364.5t-228.5 -252.5t-330.5 -91q-185 0 -331.5 91t-229 251.5t-82.5 365.5zM489 692q0 -162 62.5 -265t159.5 -103q61 0 111 48t79 132t29 188q0 162 -61.5 264.5t-157.5 102.5 q-100 0 -161 -101.5t-61 -265.5z" />
<glyph unicode="1" horiz-adv-x="925" d="M88 0v301h172v682l-172 -12v266q90 0 194.5 34t202.5 99h215v-1069h172v-301h-784z" />
<glyph unicode="2" horiz-adv-x="1060" d="M53 1270q113 57 222.5 85.5t230.5 28.5q143 0 250.5 -56t165 -153.5t57.5 -222.5q0 -186 -125 -347t-377 -306h494v-299h-893v289q242 217 364.5 368.5t122.5 251.5q0 66 -40 100.5t-107 34.5q-127 0 -264 -79z" />
<glyph unicode="3" horiz-adv-x="1071" d="M43 1276q225 111 473 110q188 0 306 -90t118 -245q0 -100 -52 -182.5t-140 -131.5q117 -53 185 -145t68 -205q0 -125 -66.5 -217t-186 -142.5t-275.5 -50.5q-224 0 -412 80l68 301q162 -66 301 -65q168 0 168 125q0 88 -86 125t-287 37v254q182 0 273.5 36.5t91.5 104.5 q0 92 -158 92q-150 0 -309 -70z" />
<glyph unicode="4" horiz-adv-x="1300" d="M37 334v287l545 749h458v-754h197v-284h-197v-332h-436v334h-567zM338 616h266v406z" />
<glyph unicode="5" horiz-adv-x="1095" d="M88 614l53 756h791l-31 -293h-483l-27 -227q55 35 108.5 49t123.5 14q119 0 214 -59t149 -164.5t54 -236.5q0 -137 -71.5 -247t-197.5 -171.5t-286 -61.5q-188 0 -389 88l27 289q82 -31 166 -47t149 -16q96 0 147.5 45t51.5 121q0 68 -37 109.5t-96 41.5q-84 0 -203 -82z " />
<glyph unicode="6" horiz-adv-x="1282" d="M70 647q0 213 83 382t230 265.5t336 96.5q229 0 438 -138l-96 -268q-80 45 -150.5 66.5t-144.5 21.5q-133 0 -203.5 -86t-87.5 -272q55 70 142.5 106.5t193.5 36.5q186 0 298 -113.5t112 -302.5q0 -125 -72 -229t-196 -165.5t-271 -61.5q-184 0 -322.5 80.5t-214 230 t-75.5 350.5zM483 555q4 -135 55.5 -205.5t141.5 -70.5q72 0 117 46t45 117q0 70 -49.5 110t-137.5 40q-84 0 -172 -37z" />
<glyph unicode="7" horiz-adv-x="954" d="M53 1073v297h858v-338l-434 -1067l-379 158l394 950h-439z" />
<glyph unicode="8" horiz-adv-x="1284" d="M61 373q0 227 258 327q-84 70 -119.5 141.5t-35.5 170.5q0 111 62.5 196.5t176 133t259.5 47.5q131 0 234 -40t161.5 -113t58.5 -165q0 -96 -41 -161.5t-129 -110.5q141 -74 208 -168t67 -225q0 -203 -154 -318t-424 -115q-176 0 -307 49.5t-203 139.5t-72 211zM471 406 q0 -68 48 -109t126 -41t126 29.5t48 79.5q0 53 -44 93t-144 79l-94 36q-66 -68 -66 -167zM485 1061q0 -51 40 -88t137 -74l69 -27q64 62 64 148q0 72 -39 109.5t-113 37.5q-78 0 -118 -27.5t-40 -78.5z" />
<glyph unicode="9" horiz-adv-x="1271" d="M61 934q0 125 70 229.5t190.5 166t268.5 61.5q184 0 322.5 -81t214 -230.5t75.5 -350.5q0 -213 -83 -382t-230.5 -265t-335.5 -96q-229 0 -438 137l96 268q80 -45 150.5 -66.5t144.5 -21.5q133 0 203.5 86t87.5 273q-115 -143 -316 -144q-199 0 -309.5 112.5 t-110.5 303.5zM430 930q0 -74 49 -115t137 -41q84 0 172 37q-4 141 -54 214t-142 73q-72 0 -117 -46t-45 -122z" />
<glyph unicode=":" horiz-adv-x="604" d="M72 197q0 92 63.5 149t167.5 57q102 0 165.5 -60t63.5 -146q0 -96 -59 -152.5t-170 -56.5q-108 0 -169.5 59t-61.5 150zM72 840q0 92 63.5 149t167.5 57q102 0 165.5 -60t63.5 -146q0 -96 -59 -152.5t-170 -56.5q-108 0 -169.5 59t-61.5 150z" />
<glyph unicode=";" horiz-adv-x="604" d="M72 840q0 92 63.5 149t167.5 57q102 0 165.5 -60t63.5 -146q0 -96 -59 -152.5t-170 -56.5q-108 0 -169.5 59t-61.5 150zM92 0v383h420v-209q0 -236 -27.5 -339t-112.5 -142t-280 -39v240q104 0 137 4t43.5 24.5t10.5 77.5h-191z" />
<glyph unicode="&#x3c;" d="M123 442v344l983 443v-307l-729 -308l729 -307v-307z" />
<glyph unicode="=" d="M123 184v275h983v-275h-983zM123 567v275h983v-275h-983z" />
<glyph unicode="&#x3e;" d="M123 0v307l729 307l-729 308v307l983 -443v-344z" />
<glyph unicode="?" horiz-adv-x="1034" d="M78 1350q96 43 206.5 66.5t204.5 23.5q145 0 258 -48.5t175.5 -135.5t62.5 -197q0 -98 -41 -163t-96 -100.5t-146 -74.5q-92 -41 -134 -74t-42 -88v-39h-286q-35 99 -35 160q0 102 60.5 157.5t164.5 104.5q59 29 82 45.5t23 38.5q0 66 -162 66q-143 0 -267 -54zM150 197 q0 92 64.5 149t166.5 57q98 0 163.5 -59t65.5 -147q0 -98 -60.5 -153.5t-168.5 -55.5q-105 0 -168 57t-63 152z" />
<glyph unicode="@" horiz-adv-x="1769" d="M63 735q0 225 108 403.5t300.5 278t435.5 99.5q250 0 432.5 -81t279.5 -233.5t97 -361.5q0 -219 -93 -341t-261 -122q-219 0 -309 151q-82 -150 -248 -149q-92 0 -169 44t-123 124t-46 182q0 176 124 278.5t339 102.5q164 0 332 -29v-458q37 -41 73 -41q57 0 89 67.5 t32 186.5q0 442 -547 442q-168 0 -302 -69.5t-209.5 -192.5t-75.5 -279q0 -154 72.5 -272.5t203.5 -185t301 -66.5q236 0 412 94l119 -205q-127 -72 -250 -103.5t-281 -31.5q-244 0 -434.5 97.5t-296 272.5t-105.5 398zM737 745q0 -57 41 -98t99 -41q55 0 95 40t40 93v162 h-74q-96 0 -148.5 -40t-52.5 -116z" />
<glyph unicode="A" horiz-adv-x="1431" d="M10 0l389 1409h623l408 -1409h-482l-53 270h-365l-59 -270h-461zM573 522h273l-133 617z" />
<glyph unicode="B" horiz-adv-x="1476" d="M133 -2v1411h705q150 0 269.5 -42t187 -120t67.5 -180q0 -127 -55.5 -199.5t-167.5 -101.5q286 -45 286 -336q0 -205 -185 -330t-574 -125q-127 0 -235.5 4.5t-297.5 18.5zM588 303q92 -6 155 -6q113 0 173.5 42t60.5 118q0 82 -55.5 126t-157.5 44h-176v-324zM590 852 h162q80 0 132 39t52 100q0 145 -180 146h-166v-285z" />
<glyph unicode="C" horiz-adv-x="1236" d="M63 705q0 209 94.5 376.5t258.5 263t368 95.5q111 0 217.5 -27t182.5 -76l-56 -317q-147 55 -266 55q-164 0 -252 -95t-88 -273q0 -174 93.5 -271.5t258.5 -97.5q63 0 119 12t135 45l58 -323q-178 -104 -389 -105q-205 0 -372 97.5t-264.5 266.5t-97.5 374z" />
<glyph unicode="D" horiz-adv-x="1564" d="M133 0v1409h612q221 0 392.5 -88t266.5 -245.5t95 -360.5q0 -213 -93 -375t-264 -251t-397 -89h-612zM586 369h139q154 0 234.5 97t80.5 253q0 147 -78.5 234t-236.5 87h-139v-671z" />
<glyph unicode="E" horiz-adv-x="1218" d="M133 0v1409h989v-311h-491v-256h448v-258h-448v-273h491v-311h-989z" />
<glyph unicode="F" horiz-adv-x="1167" d="M133 0v1409h971v-311h-531v-285h492v-258h-492v-555h-440z" />
<glyph unicode="G" horiz-adv-x="1349" d="M61 717q0 199 95.5 364.5t265.5 262t387 96.5q119 0 230.5 -27t201.5 -76l-135 -317q-139 57 -260 57q-158 0 -244 -101.5t-86 -264.5q0 -106 39 -191.5t109.5 -134.5t160.5 -49q49 0 82 8v330l355 41v-641q-231 -106 -474 -107q-206 0 -372 99.5t-260.5 271.5t-94.5 379 z" />
<glyph unicode="H" horiz-adv-x="1626" d="M133 0v1409h461v-561h436v561h463v-1409h-463v553h-436v-553h-461z" />
<glyph unicode="I" horiz-adv-x="739" d="M133 0v1409h473v-1409h-473z" />
<glyph unicode="J" horiz-adv-x="944" d="M-2 16l96 254q79 -28 135 -28h4q137 0 138 170v997h440v-997q0 -236 -123 -370t-338 -134h-3q-186 0 -349 108z" />
<glyph unicode="K" horiz-adv-x="1570" d="M133 0v1409h475v-575h148l272 575h473v-92l-323 -606l370 -619v-92h-497l-303 559h-140v-559h-475z" />
<glyph unicode="L" horiz-adv-x="1101" d="M133 0v1409h442v-1098h490v-311h-932z" />
<glyph unicode="M" horiz-adv-x="1816" d="M133 0v1409h426l352 -684l344 684h426v-1409h-426v752l-260 -492h-174l-262 492v-752h-426z" />
<glyph unicode="N" horiz-adv-x="1605" d="M133 0v1409h412l561 -760v760h367v-1409h-410l-565 733v-733h-365z" />
<glyph unicode="O" horiz-adv-x="1634" d="M63 702q0 215 95.5 383t266.5 261.5t392 93.5t392 -93.5t266.5 -260t95.5 -384.5q0 -213 -95.5 -379.5t-267.5 -261t-391 -94.5q-221 0 -392 94.5t-266.5 261t-95.5 379.5zM522 705q0 -164 82 -264.5t213 -100.5q129 0 212 100.5t83 264.5q0 109 -38 193.5t-105.5 132.5 t-153.5 48q-84 0 -151.5 -48t-104.5 -133t-37 -193z" />
<glyph unicode="P" horiz-adv-x="1329" d="M133 0v1409h508q315 0 488.5 -123t173.5 -344q0 -139 -85 -243.5t-231.5 -161t-324.5 -56.5h-87v-481h-442zM575 770q41 -4 89 -4q108 0 167.5 45t59.5 131t-58.5 129t-168.5 43h-89v-344z" />
<glyph unicode="Q" horiz-adv-x="1634" d="M63 702q0 215 95.5 383t266.5 261.5t392 93.5t392 -93.5t266.5 -260t95.5 -384.5q0 -170 -67.5 -320.5t-194.5 -256.5l262 -172v-78l-258 -201l-453 297q-25 -4 -45 -4q-219 0 -390 94.5t-266.5 261t-95.5 379.5zM522 705q0 -164 82 -264.5t213 -100.5q129 0 212 100.5 t83 264.5q0 109 -38 193.5t-105.5 132.5t-153.5 48q-84 0 -151.5 -48t-104.5 -133t-37 -193z" />
<glyph unicode="R" horiz-adv-x="1429" d="M133 0v1409h621q176 0 310 -52t208 -146.5t74 -217.5q0 -137 -67 -230t-206 -153q14 -78 33 -141q25 -78 68 -108.5t124 -30.5q29 0 91 8v-334q-96 -37 -189 -37q-385 1 -471 357l-51 211h-96v-535h-449zM582 821h77q152 0 214.5 34t62.5 116q0 70 -51 101.5t-162 31.5 h-141v-283z" />
<glyph unicode="S" horiz-adv-x="1212" d="M70 983q0 225 148.5 341t399.5 116q131 0 258.5 -28t225.5 -81l-111 -309q-115 39 -199.5 56.5t-164.5 17.5q-135 0 -135 -74q0 -37 44 -62.5t181 -64.5q215 -57 325.5 -175t110.5 -282q0 -227 -147.5 -349t-436.5 -122q-288 1 -487 107l102 317q211 -76 377 -76 q90 0 132 21.5t42 64.5q0 29 -22.5 50.5t-90 48t-202.5 65.5q-166 49 -258 161t-92 257z" />
<glyph unicode="T" horiz-adv-x="1181" d="M59 1098v311h1063v-311h-293v-1098h-477v1098h-293z" />
<glyph unicode="U" horiz-adv-x="1634" d="M121 584v825h463v-825q0 -123 59 -184.5t174 -61.5t174.5 62.5t59.5 183.5v825h462v-825q0 -180 -88 -320.5t-246.5 -218.5t-361.5 -78t-361.5 78t-246.5 218t-88 321z" />
<glyph unicode="V" horiz-adv-x="1376" d="M4 1409h463l217 -879l217 879h483l-440 -1409h-522z" />
<glyph unicode="W" horiz-adv-x="2027" d="M43 1409h461l133 -899l137 659h477l140 -659l133 899h461l-320 -1409h-477l-174 758l-174 -758h-478z" />
<glyph unicode="X" horiz-adv-x="1296" d="M0 0l391 700l-379 709h465l166 -356l166 356h473l-381 -709l393 -700h-473l-178 350l-178 -350h-465z" />
<glyph unicode="Y" horiz-adv-x="1253" d="M-6 1409h428l199 -633l194 633h451l-426 -1018v-391h-441v391z" />
<glyph unicode="Z" horiz-adv-x="1107" d="M74 0v297l481 813h-463v299h922v-299l-471 -811h491v-299h-960z" />
<glyph unicode="[" horiz-adv-x="915" d="M119 0v1409h727v-305h-287v-803h287v-301h-727z" />
<glyph unicode="\" horiz-adv-x="983" d="M20 1409h398l545 -1409h-398z" />
<glyph unicode="]" horiz-adv-x="915" d="M70 0v301h286v803h-286v305h727v-1409h-727z" />
<glyph unicode="^" d="M41 123l401 1024h344l402 -1024h-307l-267 770l-266 -770h-307z" />
<glyph unicode="_" horiz-adv-x="972" d="M96 0v319h781v-319h-781z" />
<glyph unicode="`" d="M160 1452l207 367l600 -420l-125 -219z" />
<glyph unicode="a" horiz-adv-x="1425" d="M51 518q0 147 69.5 267t186.5 187.5t248 67.5q106 0 197.5 -59t138.5 -178v237h430v-1040h-430v190q-102 -206 -334 -206h-2q-133 0 -249 70.5t-185.5 192.5t-69.5 271zM481 512q0 -86 61.5 -145.5t145.5 -59.5q82 0 140.5 58.5t62.5 138.5v16q-4 82 -64.5 139.5 t-138.5 57.5q-86 0 -146.5 -60.5t-60.5 -144.5z" />
<glyph unicode="b" horiz-adv-x="1427" d="M106 0v1350l435 63v-579q51 109 133 157.5t198 48.5q137 0 253 -68.5t182.5 -189t66.5 -270.5q0 -147 -68.5 -268t-184 -190.5t-247.5 -69.5h-2q-233 0 -331 206v-190h-435zM541 512q0 -86 60.5 -145.5t141.5 -59.5q84 0 143.5 61.5t59.5 143.5q0 86 -60.5 145.5 t-142.5 59.5q-84 0 -143 -58.5t-59 -138.5v-8z" />
<glyph unicode="c" horiz-adv-x="966" d="M51 512q0 147 74 268t201 190.5t282 69.5q199 0 314 -82l-39 -272q-117 35 -193 35q-98 0 -155.5 -56.5t-57.5 -152.5t57.5 -153.5t151.5 -57.5q82 0 193 35l39 -287q-70 -35 -141.5 -50t-168.5 -15q-164 0 -289.5 66.5t-196.5 187t-71 274.5z" />
<glyph unicode="d" horiz-adv-x="1427" d="M53 512q0 145 68.5 267t184.5 191.5t247 69.5q119 0 202 -49t134 -157v516l432 63v-1413h-432v190q-96 -206 -336 -206h-2q-139 0 -253 73.5t-179.5 195.5t-65.5 259zM483 512q0 -86 60.5 -145.5t142.5 -59.5q86 0 144.5 61.5t58.5 143.5v8q0 80 -61.5 138.5t-141.5 58.5 q-86 0 -144.5 -60.5t-58.5 -144.5z" />
<glyph unicode="e" horiz-adv-x="1138" d="M51 512q0 156 76 276.5t205 186t286 65.5q152 0 259.5 -66.5t161 -180t53.5 -254.5q0 -37 -5 -54l-614 -79q25 -72 80 -104t145 -32q139 0 301 72l52 -274q-190 -84 -418 -84q-170 0 -302 68.5t-206 188t-74 271.5zM457 594l317 70q-33 129 -156 129q-74 0 -116.5 -55.5 t-44.5 -143.5z" />
<glyph unicode="f" horiz-adv-x="890" d="M51 772v254h129v86q0 227 109.5 344t306.5 117q158 0 293 -80l-15 -276q-119 47 -198 47q-61 0 -94 -30t-33 -85q0 -53 35 -123h286v-254h-258v-772h-432v772h-129z" />
<glyph unicode="g" horiz-adv-x="1423" d="M53 518q0 143 65.5 263t179.5 189.5t249 69.5q125 0 218 -64.5t122 -172.5v237h432v-780q0 -358 -163 -543.5t-474 -185.5q-113 0 -215 23l33 303q80 -12 147 -13q127 0 192.5 75t78.5 251q-121 -170 -369 -170q-135 0 -249 69.5t-180.5 188.5t-66.5 260zM479 512 q0 -84 59.5 -144.5t143.5 -60.5q82 0 141.5 58.5t63.5 138.5v16q-4 78 -64.5 137.5t-140.5 59.5q-84 0 -143.5 -60.5t-59.5 -144.5z" />
<glyph unicode="h" horiz-adv-x="1406" d="M102 0v1350l433 63v-598q45 109 136 167t220 58q197 0 308.5 -140t111.5 -388v-512h-430v555q0 88 -38 135t-106 47q-49 0 -96 -31.5t-76.5 -91t-29.5 -135.5v-479h-433z" />
<glyph unicode="i" horiz-adv-x="747" d="M86 1389q0 88 69.5 147t160.5 59q94 0 162.5 -61t68.5 -145q0 -90 -69.5 -149.5t-161.5 -59.5q-97 0 -163.5 60t-66.5 149zM98 395v631h434v-612q0 -47 26 -73t67 -26t84 25l22 -285q-45 -35 -117.5 -53t-150.5 -18q-172 0 -268.5 110.5t-96.5 300.5z" />
<glyph unicode="j" horiz-adv-x="645" d="M-264 -334l94 254q92 -31 141 -31q135 0 135 170v967h433v-967q0 -233 -121 -367t-332 -134h-3q-186 0 -347 108zM86 1366q0 86 69.5 146.5t159.5 60.5q68 0 120 -30t82 -78t30 -99q0 -90 -68.5 -149.5t-163.5 -59.5q-96 0 -162.5 61.5t-66.5 147.5z" />
<glyph unicode="k" horiz-adv-x="1314" d="M106 0l3 1350l434 63l-2 -700l526 430l236 -322l-330 -229q25 -156 71 -217.5t136 -61.5q37 0 88 13l-41 -336q-61 -6 -115 -6q-137 0 -220 35.5t-136.5 119.5t-93.5 240l-121 -96v-283h-435z" />
<glyph unicode="l" horiz-adv-x="774" d="M98 393v957l432 63v-989q0 -57 28 -83t97 -26q51 0 101 25l14 -287q-135 -69 -302 -69h-5q-174 0 -269.5 109.5t-95.5 299.5z" />
<glyph unicode="m" horiz-adv-x="2101" d="M102 0v1012h412v-209q70 121 159 179t212 58q121 0 210 -60t134 -163q131 223 381 223q119 0 208 -63.5t138 -183t49 -281.5v-512h-432v512q0 104 -36 157.5t-99 53.5q-70 0 -120 -59.5t-50 -143.5v-520h-428v512q0 104 -36 157.5t-102 53.5q-70 0 -118.5 -59.5 t-48.5 -143.5v-520h-433z" />
<glyph unicode="n" horiz-adv-x="1406" d="M102 0v1012h412v-209q119 237 375 237h2q197 0 308.5 -140t111.5 -388v-512h-430v555q0 88 -38 135t-106 47q-49 0 -96 -31.5t-76.5 -91t-29.5 -135.5v-479h-433z" />
<glyph unicode="o" horiz-adv-x="1284" d="M51 514q0 156 76 275.5t210 185t306 65.5q174 0 308 -66.5t208 -185t74 -274.5q0 -158 -75 -277.5t-209 -186t-308 -66.5q-172 0 -306 67.5t-209 187t-75 275.5zM453 514q0 -98 54 -160.5t138 -62.5t138.5 62.5t54.5 160.5t-54.5 160.5t-138.5 62.5t-138 -62.5 t-54 -160.5z" />
<glyph unicode="p" horiz-adv-x="1423" d="M102 -348v1360h433v-178q98 206 331 206h2q137 0 253 -68.5t182.5 -189t66.5 -270.5t-68.5 -270.5t-184.5 -189t-247 -68.5q-233 0 -335 206v-456zM537 512q0 -86 60 -145.5t142 -59.5q84 0 143.5 61.5t59.5 143.5q0 86 -60.5 145.5t-142.5 59.5q-84 0 -143 -58.5 t-59 -138.5v-8z" />
<glyph unicode="q" horiz-adv-x="1425" d="M53 512q0 147 67.5 269t183.5 190.5t251 68.5q117 0 200 -49t136 -157v178h432v-1278l-432 -82v538q-53 -109 -137 -157.5t-201 -48.5q-147 0 -261 72.5t-176.5 194.5t-62.5 261zM483 512q0 -86 61.5 -145.5t143.5 -59.5t140.5 58.5t62.5 138.5v16q-2 80 -63.5 138.5 t-139.5 58.5q-84 0 -144.5 -61.5t-60.5 -143.5z" />
<glyph unicode="r" horiz-adv-x="913" d="M102 0v1012h433v-209q47 121 127.5 179t189.5 58l59 -333q-195 0 -285.5 -42t-90.5 -133v-532h-433z" />
<glyph unicode="s" horiz-adv-x="946" d="M55 707q8 162 129 247.5t330 85.5q106 0 183 -13t141 -44l-43 -244q-59 23 -130 35t-118 12q-70 0 -96.5 -14t-26.5 -39q0 -45 102 -63q186 -33 278.5 -115t92.5 -223q0 -162 -113.5 -255t-326.5 -93q-215 0 -377 63l47 244q147 -53 287 -53q102 0 102 57q0 29 -29.5 47 t-111.5 33q-170 33 -245 110.5t-75 221.5z" />
<glyph unicode="t" horiz-adv-x="890" d="M39 772v254h162l190 387h207v-387h238v-254h-238v-348q0 -51 33 -80t92 -29q55 0 100 25l17 -287q-51 -31 -132 -50t-157 -19q-180 0 -280.5 103t-100.5 286v399h-131z" />
<glyph unicode="u" horiz-adv-x="1286" d="M94 440v586h422v-580q0 -68 38 -105.5t95 -37.5q55 0 91 38t36 105v580h414v-586q0 -135 -68.5 -238.5t-191.5 -160.5t-283 -57q-162 0 -288 57t-195.5 161.5t-69.5 237.5z" />
<glyph unicode="v" horiz-adv-x="1167" d="M2 1026h475l158 -614l153 614h375l-325 -1026h-498z" />
<glyph unicode="w" horiz-adv-x="1705" d="M41 1026h418l116 -666l142 666h352l143 -682l117 682h336l-213 -1026h-489l-115 543l-109 -543h-473z" />
<glyph unicode="x" horiz-adv-x="1136" d="M4 0l311 532l-290 494h432l114 -242l119 242h420l-287 -494l307 -532h-419l-140 262l-135 -262h-432z" />
<glyph unicode="y" horiz-adv-x="1368" d="M98 514v512h430v-575q0 -70 39 -116t107 -46q70 0 113.5 59.5t43.5 155.5v522h433v-766q0 -356 -160 -542.5t-457 -186.5q-113 0 -215 23l33 303q80 -12 147 -13q121 0 184.5 73t65.5 273q-105 -204 -340 -204h-2q-199 0 -310.5 140t-111.5 388z" />
<glyph unicode="z" horiz-adv-x="1003" d="M63 0v219l361 545h-346v262h852v-221l-342 -543h350v-262h-875z" />
<glyph unicode="{" horiz-adv-x="727" d="M12 612v160q125 14 125 123q0 246 140.5 394.5t381.5 168.5v-178q-125 -45 -124 -385q0 -68 -40 -116t-116 -87q78 -41 117 -89t39 -116q0 -338 124 -383v-178q-241 19 -381.5 169.5t-140.5 391.5q0 55 -32.5 87t-92.5 38z" />
<glyph unicode="|" horiz-adv-x="641" d="M133 0v1409h375v-1409h-375z" />
<glyph unicode="}" horiz-adv-x="727" d="M68 -74v178q127 47 127 383q0 68 38.5 116t116.5 89q-76 39 -115.5 87t-39.5 116q0 336 -127 385v178q246 -20 384 -169.5t138 -393.5q0 -109 127 -123v-160q-59 -6 -93 -37.5t-34 -87.5q0 -246 -140.5 -393t-381.5 -168z" />
<glyph unicode="~" d="M76 391q39 162 130 258t197 96q63 0 116.5 -16t121.5 -47q57 -27 97 -40t83 -13q78 0 115 96l217 -84q-39 -162 -130 -258t-198 -96q-63 0 -116.5 16t-120.5 47q-57 27 -97 40t-83 13q-78 0 -115 -96z" />
<glyph unicode="&#xa1;" horiz-adv-x="624" d="M82 1221q0 92 63.5 149t167.5 57q102 0 166 -60t64 -146q0 -96 -59.5 -152.5t-170.5 -56.5q-108 0 -169.5 59t-61.5 150zM96 0v317l82 580h271l79 -580v-317h-432z" />
<glyph unicode="&#xa2;" horiz-adv-x="942" d="M51 512q0 152 75 270.5t199 186t265 71.5v158h174v-172q72 -16 158 -68l-39 -262q-70 20 -119 29v-428q51 8 115 29l39 -277q-76 -37 -154 -53v-170h-174v158q-152 4 -274.5 71.5t-193.5 186t-71 270.5zM457 512q0 -78 33.5 -131t99.5 -76v412q-63 -20 -98 -73.5 t-35 -131.5z" />
<glyph unicode="&#xa3;" horiz-adv-x="1073" d="M72 616v175h133v104q0 254 99 384t345 130q164 0 355 -78l-35 -278q-117 49 -199 49q-59 0 -93 -30t-34 -87v-194h256v-175h-256v-317h344v-299h-913v129q61 2 96 48t35 122v317h-133z" />
<glyph unicode="&#xa4;" horiz-adv-x="1144" d="M74 233l145 146q-98 111 -98 264q0 152 94 262l-141 142l92 92l149 -150q111 68 252 68q139 0 258 -72l154 154l92 -92l-145 -146q94 -102 94 -258q0 -152 -98 -260l149 -150l-90 -92l-162 160q-113 -63 -254 -63t-243 61l-156 -158zM399 643q0 -78 47 -125t123 -47 q74 0 121 49t47 123q0 76 -46 125t-122 49t-123 -48t-47 -126z" />
<glyph unicode="&#xa5;" horiz-adv-x="1353" d="M41 1409h428l199 -633l194 633h451l-365 -870h211v-152h-272v-88h272v-152h-272v-147h-441v147h-270v152h270v88h-270v152h211z" />
<glyph unicode="&#xa6;" horiz-adv-x="641" d="M133 0v553h375v-553h-375zM133 856v553h375v-553h-375z" />
<glyph unicode="&#xa7;" horiz-adv-x="1091" d="M86 670q0 158 123 245q-123 80 -123 238q6 152 136 219.5t325 67.5q244 0 401 -76l-43 -227q-49 16 -138 31.5t-179 15.5q-96 0 -96 -39q0 -20 34.5 -36.5t118.5 -47.5q106 -37 181 -72t130.5 -91t55.5 -134q0 -84 -34 -147.5t-95 -100.5q125 -80 125 -233 q0 -170 -142.5 -243t-328.5 -73q-215 0 -426 76l45 250q76 -27 167 -44.5t173 -17.5q94 0 94 48q0 18 -17.5 29t-78.5 32l-62 22l-80 29q-106 41 -186 103.5t-80 175.5zM403 713q0 -68 172 -107q48 0 75.5 23.5t27.5 64.5q0 31 -46 57.5t-140 53.5q-41 -4 -65 -27.5 t-24 -64.5z" />
<glyph unicode="&#xa8;" d="M96 1384q0 88 70 148.5t160 60.5q94 0 162.5 -62.5t68.5 -146.5q0 -88 -69.5 -146t-161.5 -58q-96 0 -163 59t-67 145zM674 1384q0 90 70.5 149.5t160.5 59.5q68 0 119 -30.5t80 -78.5t29 -100q0 -88 -67.5 -146t-160.5 -58q-100 0 -165.5 61.5t-65.5 142.5z" />
<glyph unicode="&#xa9;" horiz-adv-x="1427" d="M72 786q0 178 85 326t231.5 233t324.5 85q184 0 330.5 -83t229.5 -229.5t83 -331.5q0 -176 -86 -323.5t-233.5 -233.5t-323.5 -86q-178 0 -325.5 85t-231.5 231.5t-84 326.5zM221 786q0 -147 63.5 -263.5t175 -182.5t253.5 -66q141 0 252.5 66t175 182.5t63.5 263.5 t-63.5 264t-175 182.5t-252.5 65.5t-253 -65.5t-175.5 -182t-63.5 -264.5zM344 782q0 111 48 197t138.5 135t210.5 49q127 0 222 -53l-31 -182q-80 29 -148 28q-84 0 -132 -45t-48 -127q0 -80 50.5 -127t138.5 -47q33 0 61.5 6.5t77.5 22.5l33 -184q-100 -53 -217 -54 q-117 0 -209.5 47.5t-143.5 134.5t-51 199z" />
<glyph unicode="&#xaa;" horiz-adv-x="993" d="M31 1063q0 104 46 188t126 131.5t180 47.5q182 0 235 -168v168h312v-730h-312v134q-35 -80 -91 -113t-144 -33q-100 0 -181 49t-126 135t-45 191zM354 1059q0 -59 39 -96t94 -37q56 0 91.5 35.5t35.5 97.5q0 59 -36.5 96t-90.5 37q-57 0 -95 -37t-38 -96z" />
<glyph unicode="&#xab;" horiz-adv-x="1110" d="M53 442v369l430 305v-373l-196 -116l196 -125v-373zM586 442v369l430 305v-373l-199 -116l199 -125v-373z" />
<glyph unicode="&#xac;" d="M123 535v317h983v-678h-332v361h-651z" />
<glyph unicode="&#xad;" horiz-adv-x="739" d="M94 354v320h551v-320h-551z" />
<glyph unicode="&#xae;" horiz-adv-x="1427" d="M72 786q0 178 85 326t231.5 233t324.5 85q184 0 330.5 -83t229.5 -229.5t83 -331.5q0 -176 -86 -323.5t-233.5 -233.5t-323.5 -86q-178 0 -325.5 85t-231.5 231.5t-84 326.5zM221 786q0 -147 63.5 -263.5t175 -182.5t253.5 -66q141 0 252.5 66t175 182.5t63.5 263.5 t-63.5 264t-175 182.5t-252.5 65.5t-253 -65.5t-175.5 -182t-63.5 -264.5zM426 444v723h322q137 0 219 -58t82 -155q0 -139 -140 -196l17 -74q8 -39 27.5 -55.5t54.5 -16.5q20 0 57 4v-161q-51 -27 -117 -27q-96 0 -149.5 42t-73.5 130l-27 119h-34v-275h-238zM664 866h65 q37 0 62.5 22.5t25.5 55.5t-23.5 49.5t-64.5 16.5h-65v-144z" />
<glyph unicode="&#xaf;" d="M258 1200v262h713v-262h-713z" />
<glyph unicode="&#xb0;" horiz-adv-x="956" d="M70 1030q0 113 55 202t152.5 139t216.5 50t208 -49t137 -137t48 -199q0 -113 -58.5 -203t-153.5 -141t-202 -51q-104 0 -196.5 49t-149.5 138.5t-57 201.5zM307 1032q0 -82 50.5 -134t121.5 -52q78 0 125 51t47 135t-49 134.5t-123 50.5t-123 -52.5t-49 -132.5z" />
<glyph unicode="&#xb1;" d="M102 760v317h347v332h331v-332h346v-317h-346v-332h-331v332h-347zM123 0v317h1003v-317h-1003z" />
<glyph unicode="&#xb2;" horiz-adv-x="593" d="M29 1376q109 63 252 64q123 0 195.5 -67.5t72.5 -180.5q0 -188 -262 -336h239v-170h-483v162q145 133 205.5 212t60.5 124q0 61 -82 61q-33 0 -72.5 -12t-66.5 -31z" />
<glyph unicode="&#xb3;" horiz-adv-x="579" d="M25 715l38 157q98 -37 173 -36q39 0 61 18t22 49q0 90 -202 90v152q197 0 196 74q0 53 -77 53q-84 0 -173 -33l-38 152q115 59 251 59q98 0 165 -52t67 -130q0 -59 -23.5 -104.5t-83.5 -78.5q139 -61 140 -202q0 -100 -75 -158.5t-202 -58.5q-126 0 -239 49z" />
<glyph unicode="&#xb4;" d="M262 1399l600 420l207 -367l-682 -272z" />
<glyph unicode="&#xb5;" d="M76 -299v1325h422v-682q63 -41 120 -41q119 0 119 164v559h424v-586q0 -133 -61.5 -241.5t-165 -170t-225.5 -61.5q-102 0 -224 58v-295z" />
<glyph unicode="&#xb6;" horiz-adv-x="1138" d="M47 1067q0 98 59.5 176t169 122t252.5 44h459v-1409h-164v1253h-129v-1253h-166v727h-86q-113 0 -202.5 44t-141 121t-51.5 175z" />
<glyph unicode="&#xb7;" horiz-adv-x="624" d="M102 340v383h420v-383h-420z" />
<glyph unicode="&#xb8;" d="M379 -471l2 117q49 -16 96 -17q55 0 86 24.5t31 72.5q0 39 -32.5 63.5t-86.5 32.5l82 239h156l-51 -153q96 -25 140 -73t44 -122q0 -100 -76 -160.5t-205 -60.5q-106 0 -186 37z" />
<glyph unicode="&#xb9;" horiz-adv-x="489" d="M49 686v160h90v362l-90 -8v141q113 0 209 72h113v-567h90v-160h-412z" />
<glyph unicode="&#xba;" horiz-adv-x="886" d="M31 1061q0 115 56 198.5t150.5 127t206.5 43.5q121 0 214.5 -47.5t145.5 -131.5t52 -190q0 -125 -60.5 -209t-154.5 -124t-199 -40q-120 0 -214.5 47t-145.5 132t-51 194zM328 1061q0 -66 33.5 -101.5t84.5 -35.5q50 0 83.5 35.5t33.5 101.5t-32.5 100.5t-84.5 34.5 q-51 0 -84.5 -35t-33.5 -100z" />
<glyph unicode="&#xbb;" horiz-adv-x="1107" d="M94 129v373l197 125l-197 116v373l430 -305v-369zM625 129v373l194 125l-194 116v373l430 -305v-369z" />
<glyph unicode="&#xbc;" horiz-adv-x="1363" d="M49 686v160h90v362l-90 -8v141q113 0 209 72h113v-567h90v-160h-412zM129 0l766 1409h225l-770 -1409h-221zM677 180v158l302 418h256v-418h94v-158h-94v-180h-246v180h-312zM841 338h148v221z" />
<glyph unicode="&#xbd;" horiz-adv-x="1353" d="M49 686v160h90v362l-90 -8v141q113 0 209 72h113v-567h90v-160h-412zM129 0l766 1409h225l-770 -1409h-221zM789 690q109 63 252 64q123 0 195.5 -68t72.5 -180q0 -188 -262 -336h239v-170h-483v162q145 133 205.5 212t60.5 124q0 61 -82 61q-33 0 -72.5 -12t-66.5 -31z " />
<glyph unicode="&#xbe;" horiz-adv-x="1460" d="M25 715l38 157q98 -37 173 -36q39 0 61 18t22 49q0 90 -202 90v152q197 0 196 74q0 53 -77 53q-84 0 -173 -33l-38 152q115 59 251 59q98 0 165 -52t67 -130q0 -59 -23.5 -104.5t-83.5 -78.5q139 -61 140 -202q0 -100 -75 -158.5t-202 -58.5q-126 0 -239 49zM220 0 l766 1409h225l-770 -1409h-221zM774 180v158l302 418h256v-418h94v-158h-94v-180h-246v180h-312zM938 338h148v221z" />
<glyph unicode="&#xbf;" horiz-adv-x="1034" d="M49 350q0 98 41 163t96.5 100.5t145.5 74.5q92 41 134 74t42 88v39h287q35 -98 34 -160q0 -102 -60 -157.5t-165 -104.5q-59 -29 -81.5 -45t-22.5 -39q0 -66 162 -66q143 0 266 54l28 -312q-96 -43 -206.5 -66.5t-204.5 -23.5q-146 0 -258.5 48.5t-175 135.5t-62.5 197z M426 1221q0 92 63.5 149t167.5 57q102 0 166 -60t64 -146q0 -96 -59.5 -152.5t-170.5 -56.5q-108 0 -169.5 59t-61.5 150z" />
<glyph unicode="&#xc0;" horiz-adv-x="1431" d="M10 0l389 1409h623l408 -1409h-482l-53 270h-365l-59 -270h-461zM154 1835l206 367l600 -420l-124 -219zM573 522h273l-133 617z" />
<glyph unicode="&#xc1;" horiz-adv-x="1431" d="M10 0l389 1409h623l408 -1409h-482l-53 270h-365l-59 -270h-461zM461 1782l600 420l207 -367l-682 -272zM573 522h273l-133 617z" />
<glyph unicode="&#xc2;" horiz-adv-x="1431" d="M10 0l389 1409h623l408 -1409h-482l-53 270h-365l-59 -270h-461zM268 1583l252 510h379l252 -510h-340l-78 217l-24 78l-21 -78l-80 -217h-340zM573 522h273l-133 617z" />
<glyph unicode="&#xc3;" horiz-adv-x="1431" d="M10 0l389 1409h623l408 -1409h-482l-53 270h-365l-59 -270h-461zM213 1665q57 160 148.5 241t203.5 81q43 0 80 -13.5t84 -40.5q43 -23 72.5 -34t62.5 -11q31 0 58.5 24.5t62.5 76.5l221 -97q-57 -160 -148 -241.5t-204 -81.5q-43 0 -80 13t-84 40q-43 23 -72.5 34 t-62.5 11q-31 0 -58.5 -24.5t-62.5 -75.5zM573 522h273l-133 617z" />
<glyph unicode="&#xc4;" horiz-adv-x="1431" d="M10 0l389 1409h623l408 -1409h-482l-53 270h-365l-59 -270h-461zM192 1767q0 88 70 148.5t160 60.5q94 0 162.5 -62.5t68.5 -146.5q0 -88 -69.5 -146t-161.5 -58q-96 0 -163 59t-67 145zM573 522h273l-133 617zM770 1767q0 90 70.5 149.5t160.5 59.5q68 0 119 -30.5 t80 -78.5t29 -100q0 -88 -67.5 -146t-160.5 -58q-100 0 -165.5 61.5t-65.5 142.5z" />
<glyph unicode="&#xc5;" horiz-adv-x="1431" d="M10 0l389 1409q-41 82 -41 170q0 104 46.5 185t127 125t181.5 44q109 0 188.5 -47t121.5 -128t42 -179q0 -96 -43 -172l408 -1407h-482l-53 270h-365l-59 -270h-461zM573 522h273l-133 617zM588 1579q0 -59 34.5 -96t90.5 -37q55 0 86.5 36t31.5 97q0 63 -33.5 100 t-88.5 37t-88 -37t-33 -100z" />
<glyph unicode="&#xc6;" horiz-adv-x="1918" d="M-6 0l481 1409h1182l53 -311h-549l43 -256h504l43 -258h-502l45 -273h551l53 -311h-980l-46 270h-346l-84 -270h-448zM602 522h221l-84 514z" />
<glyph unicode="&#xc7;" horiz-adv-x="1236" d="M63 705q0 209 94.5 376.5t258.5 263t368 95.5q111 0 217.5 -27t182.5 -76l-56 -317q-147 55 -266 55q-164 0 -252 -95t-88 -273q0 -174 93.5 -271.5t258.5 -97.5q63 0 119 12t135 45l58 -323q-178 -104 -389 -105h-2l-21 -59q96 -25 140 -73t44 -122q0 -100 -75.5 -160.5 t-204.5 -60.5q-106 0 -186 37l2 117q49 -16 96 -17q55 0 86 24.5t31 72.5q0 39 -33 63.5t-86 32.5l55 160q-168 35 -299 137t-206 254.5t-75 331.5z" />
<glyph unicode="&#xc8;" horiz-adv-x="1218" d="M72 1835l206 367l600 -420l-124 -219zM133 0v1409h989v-311h-491v-256h448v-258h-448v-273h491v-311h-989z" />
<glyph unicode="&#xc9;" horiz-adv-x="1218" d="M133 0v1409h989v-311h-491v-256h448v-258h-448v-273h491v-311h-989zM379 1782l600 420l207 -367l-682 -272z" />
<glyph unicode="&#xca;" horiz-adv-x="1218" d="M133 0v1409h989v-311h-491v-256h448v-258h-448v-273h491v-311h-989zM186 1583l252 510h379l252 -510h-340l-78 217l-24 78l-21 -78l-80 -217h-340z" />
<glyph unicode="&#xcb;" horiz-adv-x="1218" d="M110 1767q0 88 70 148.5t160 60.5q94 0 162.5 -62.5t68.5 -146.5q0 -88 -69.5 -146t-161.5 -58q-96 0 -163 59t-67 145zM133 0v1409h989v-311h-491v-256h448v-258h-448v-273h491v-311h-989zM688 1767q0 90 70.5 149.5t160.5 59.5q68 0 119 -30.5t80 -78.5t29 -100 q0 -88 -67.5 -146t-160.5 -58q-100 0 -165.5 61.5t-65.5 142.5z" />
<glyph unicode="&#xcc;" horiz-adv-x="739" d="M-186 1835l206 367l600 -420l-124 -219zM133 0v1409h473v-1409h-473z" />
<glyph unicode="&#xcd;" horiz-adv-x="739" d="M121 1782l600 420l207 -367l-682 -272zM133 0v1409h473v-1409h-473z" />
<glyph unicode="&#xce;" horiz-adv-x="739" d="M-72 1583l252 510h379l252 -510h-340l-78 217l-24 78l-21 -78l-80 -217h-340zM133 0v1409h473v-1409h-473z" />
<glyph unicode="&#xcf;" horiz-adv-x="739" d="M-148 1767q0 88 70 148.5t160 60.5q94 0 162.5 -62.5t68.5 -146.5q0 -88 -69.5 -146t-161.5 -58q-96 0 -163 59t-67 145zM133 0v1409h473v-1409h-473zM430 1767q0 90 70.5 149.5t160.5 59.5q68 0 119 -30.5t80 -78.5t29 -100q0 -88 -67.5 -146t-160.5 -58 q-100 0 -165.5 61.5t-65.5 142.5z" />
<glyph unicode="&#xd0;" horiz-adv-x="1617" d="M0 618v175h186v616h613q223 0 394 -89t265 -247t94 -358q0 -213 -93 -375t-264 -251t-396 -89h-613v618h-186zM637 369h139q154 0 235 97t81 253q0 147 -79 234t-237 87h-139v-247h162v-175h-162v-249z" />
<glyph unicode="&#xd1;" horiz-adv-x="1605" d="M133 0v1409h412l561 -760v760h367v-1409h-410l-565 733v-733h-365zM305 1665q57 160 148.5 241t203.5 81q43 0 80 -13.5t84 -40.5q43 -23 72.5 -34t62.5 -11q31 0 58.5 24.5t62.5 76.5l221 -97q-57 -160 -148 -241.5t-204 -81.5q-43 0 -80 13t-84 40q-43 23 -72.5 34 t-62.5 11q-31 0 -58.5 -24.5t-62.5 -75.5z" />
<glyph unicode="&#xd2;" horiz-adv-x="1634" d="M63 702q0 215 95.5 383t266.5 261.5t392 93.5t392 -93.5t266.5 -260t95.5 -384.5q0 -213 -95.5 -379.5t-267.5 -261t-391 -94.5q-221 0 -392 94.5t-266.5 261t-95.5 379.5zM261 1835l206 367l600 -420l-124 -219zM522 705q0 -164 82 -264.5t213 -100.5q129 0 212 100.5 t83 264.5q0 109 -38 193.5t-105.5 132.5t-153.5 48q-84 0 -151.5 -48t-104.5 -133t-37 -193z" />
<glyph unicode="&#xd3;" horiz-adv-x="1634" d="M63 702q0 215 95.5 383t266.5 261.5t392 93.5t392 -93.5t266.5 -260t95.5 -384.5q0 -213 -95.5 -379.5t-267.5 -261t-391 -94.5q-221 0 -392 94.5t-266.5 261t-95.5 379.5zM522 705q0 -164 82 -264.5t213 -100.5q129 0 212 100.5t83 264.5q0 109 -38 193.5t-105.5 132.5 t-153.5 48q-84 0 -151.5 -48t-104.5 -133t-37 -193zM568 1782l600 420l207 -367l-682 -272z" />
<glyph unicode="&#xd4;" horiz-adv-x="1634" d="M63 702q0 215 95.5 383t266.5 261.5t392 93.5t392 -93.5t266.5 -260t95.5 -384.5q0 -213 -95.5 -379.5t-267.5 -261t-391 -94.5q-221 0 -392 94.5t-266.5 261t-95.5 379.5zM375 1583l252 510h379l252 -510h-340l-78 217l-24 78l-21 -78l-80 -217h-340zM522 705 q0 -164 82 -264.5t213 -100.5q129 0 212 100.5t83 264.5q0 109 -38 193.5t-105.5 132.5t-153.5 48q-84 0 -151.5 -48t-104.5 -133t-37 -193z" />
<glyph unicode="&#xd5;" horiz-adv-x="1634" d="M63 702q0 215 95.5 383t266.5 261.5t392 93.5t392 -93.5t266.5 -260t95.5 -384.5q0 -213 -95.5 -379.5t-267.5 -261t-391 -94.5q-221 0 -392 94.5t-266.5 261t-95.5 379.5zM320 1665q57 160 148.5 241t203.5 81q43 0 80 -13.5t84 -40.5q43 -23 72.5 -34t62.5 -11 q31 0 58.5 24.5t62.5 76.5l221 -97q-57 -160 -148 -241.5t-204 -81.5q-43 0 -80 13t-84 40q-43 23 -72.5 34t-62.5 11q-31 0 -58.5 -24.5t-62.5 -75.5zM522 705q0 -164 82 -264.5t213 -100.5q129 0 212 100.5t83 264.5q0 109 -38 193.5t-105.5 132.5t-153.5 48 q-84 0 -151.5 -48t-104.5 -133t-37 -193z" />
<glyph unicode="&#xd6;" horiz-adv-x="1634" d="M63 702q0 215 95.5 383t266.5 261.5t392 93.5t392 -93.5t266.5 -260t95.5 -384.5q0 -213 -95.5 -379.5t-267.5 -261t-391 -94.5q-221 0 -392 94.5t-266.5 261t-95.5 379.5zM299 1767q0 88 70 148.5t160 60.5q94 0 162.5 -62.5t68.5 -146.5q0 -88 -69.5 -146t-161.5 -58 q-96 0 -163 59t-67 145zM522 705q0 -164 82 -264.5t213 -100.5q129 0 212 100.5t83 264.5q0 109 -38 193.5t-105.5 132.5t-153.5 48q-84 0 -151.5 -48t-104.5 -133t-37 -193zM877 1767q0 90 70.5 149.5t160.5 59.5q68 0 119 -30.5t80 -78.5t29 -100q0 -88 -67.5 -146 t-160.5 -58q-100 0 -165.5 61.5t-65.5 142.5z" />
<glyph unicode="&#xd7;" d="M90 211l297 303l-297 301l232 232l294 -299l293 299l232 -232l-297 -301l297 -303l-232 -231l-293 299l-294 -299z" />
<glyph unicode="&#xd8;" horiz-adv-x="1636" d="M63 702q0 215 95.5 383t266.5 261.5t392 93.5q72 0 123 -8l68 233h174l-78 -272q217 -74 342 -257.5t125 -433.5q0 -213 -95.5 -379.5t-267.5 -261t-391 -94.5q-70 0 -121 8l-67 -233h-174l77 272q-217 76 -343 259.5t-126 428.5zM522 705q0 -100 32 -178t89 -128 l197 680h-25q-84 0 -151.5 -48t-104.5 -133t-37 -193zM801 340h16q129 0 212 100.5t83 264.5q0 98 -31.5 178t-87.5 129z" />
<glyph unicode="&#xd9;" horiz-adv-x="1634" d="M121 584v825h463v-825q0 -123 59 -184.5t174 -61.5t174.5 62.5t59.5 183.5v825h462v-825q0 -180 -88 -320.5t-246.5 -218.5t-361.5 -78t-361.5 78t-246.5 218t-88 321zM261 1835l206 367l600 -420l-124 -219z" />
<glyph unicode="&#xda;" horiz-adv-x="1634" d="M121 584v825h463v-825q0 -123 59 -184.5t174 -61.5t174.5 62.5t59.5 183.5v825h462v-825q0 -180 -88 -320.5t-246.5 -218.5t-361.5 -78t-361.5 78t-246.5 218t-88 321zM568 1782l600 420l207 -367l-682 -272z" />
<glyph unicode="&#xdb;" horiz-adv-x="1634" d="M121 584v825h463v-825q0 -123 59 -184.5t174 -61.5t174.5 62.5t59.5 183.5v825h462v-825q0 -180 -88 -320.5t-246.5 -218.5t-361.5 -78t-361.5 78t-246.5 218t-88 321zM375 1583l252 510h379l252 -510h-340l-78 217l-24 78l-21 -78l-80 -217h-340z" />
<glyph unicode="&#xdc;" horiz-adv-x="1634" d="M121 584v825h463v-825q0 -123 59 -184.5t174 -61.5t174.5 62.5t59.5 183.5v825h462v-825q0 -180 -88 -320.5t-246.5 -218.5t-361.5 -78t-361.5 78t-246.5 218t-88 321zM299 1767q0 88 70 148.5t160 60.5q94 0 162.5 -62.5t68.5 -146.5q0 -88 -69.5 -146t-161.5 -58 q-96 0 -163 59t-67 145zM877 1767q0 90 70.5 149.5t160.5 59.5q68 0 119 -30.5t80 -78.5t29 -100q0 -88 -67.5 -146t-160.5 -58q-100 0 -165.5 61.5t-65.5 142.5z" />
<glyph unicode="&#xdd;" horiz-adv-x="1253" d="M-6 1409h428l199 -633l194 633h451l-426 -1018v-391h-441v391zM377 1782l600 420l207 -367l-682 -272z" />
<glyph unicode="&#xde;" horiz-adv-x="1333" d="M133 0v1409h440v-143h68q315 0 488.5 -122t173.5 -343q0 -139 -84 -243.5t-230.5 -161t-329.5 -56.5h-86v-340h-440zM573 629q23 -4 89 -4q106 0 167.5 45t61.5 131q0 80 -65.5 126t-163.5 46h-89v-344z" />
<glyph unicode="&#xdf;" horiz-adv-x="1447" d="M106 -33v1055q0 201 164 309.5t428 108.5q139 0 257 -42t188.5 -120t70.5 -184q0 -90 -42 -159t-115 -112q152 -49 252 -164.5t100 -259.5q0 -166 -84 -276.5t-222 -162.5t-302 -52l-137 2v330q70 -4 100 -4q96 0 151.5 65.5t55.5 167.5q0 86 -68.5 152.5t-197.5 97.5 v188q74 12 121.5 51t47.5 93q0 55 -48 85.5t-111 30.5q-168 0 -168 -157v-1010z" />
<glyph unicode="&#xe0;" horiz-adv-x="1425" d="M51 518q0 147 69.5 267t186.5 187.5t248 67.5q106 0 197.5 -59t138.5 -178v237h430v-1040h-430v190q-102 -207 -336 -206q-133 0 -249 70.5t-185.5 192.5t-69.5 271zM258 1452l207 367l600 -420l-125 -219zM481 512q0 -86 61.5 -145.5t145.5 -59.5q82 0 140.5 58.5 t62.5 138.5v16q-4 82 -64.5 139.5t-138.5 57.5q-86 0 -146.5 -60.5t-60.5 -144.5z" />
<glyph unicode="&#xe1;" horiz-adv-x="1425" d="M51 518q0 147 69.5 267t186.5 187.5t248 67.5q106 0 197.5 -59t138.5 -178v237h430v-1040h-430v190q-102 -207 -336 -206q-133 0 -249 70.5t-185.5 192.5t-69.5 271zM360 1399l600 420l207 -367l-682 -272zM481 512q0 -86 61.5 -145.5t145.5 -59.5q82 0 140.5 58.5 t62.5 138.5v16q-4 82 -64.5 139.5t-138.5 57.5q-86 0 -146.5 -60.5t-60.5 -144.5z" />
<glyph unicode="&#xe2;" horiz-adv-x="1425" d="M51 518q0 147 69.5 267t186.5 187.5t248 67.5q106 0 197.5 -59t138.5 -178v237h430v-1040h-430v190q-102 -207 -336 -206q-133 0 -249 70.5t-185.5 192.5t-69.5 271zM270 1200l252 510h379l252 -510h-340l-78 217l-24 78l-21 -78l-80 -217h-340zM481 512 q0 -86 61.5 -145.5t145.5 -59.5q82 0 140.5 58.5t62.5 138.5v16q-4 82 -64.5 139.5t-138.5 57.5q-86 0 -146.5 -60.5t-60.5 -144.5z" />
<glyph unicode="&#xe3;" horiz-adv-x="1425" d="M51 518q0 147 69.5 267t186.5 187.5t248 67.5q106 0 197.5 -59t138.5 -178v237h430v-1040h-430v190q-102 -207 -336 -206q-133 0 -249 70.5t-185.5 192.5t-69.5 271zM215 1282q57 160 148.5 241t203.5 81q43 0 80 -13.5t84 -40.5q43 -23 72.5 -34t62.5 -11 q31 0 58.5 24.5t62.5 76.5l221 -97q-57 -160 -148 -241.5t-204 -81.5q-43 0 -80 13t-84 40q-43 23 -72.5 34t-62.5 11q-31 0 -58.5 -24.5t-62.5 -75.5zM481 512q0 -86 61.5 -145.5t145.5 -59.5q82 0 140.5 58.5t62.5 138.5v16q-4 82 -64.5 139.5t-138.5 57.5 q-86 0 -146.5 -60.5t-60.5 -144.5z" />
<glyph unicode="&#xe4;" horiz-adv-x="1425" d="M51 518q0 147 69.5 267t186.5 187.5t248 67.5q106 0 197.5 -59t138.5 -178v237h430v-1040h-430v190q-102 -207 -336 -206q-133 0 -249 70.5t-185.5 192.5t-69.5 271zM194 1384q0 88 70 148.5t160 60.5q94 0 162.5 -62.5t68.5 -146.5q0 -88 -69.5 -146t-161.5 -58 q-96 0 -163 59t-67 145zM481 512q0 -86 61.5 -145.5t145.5 -59.5q82 0 140.5 58.5t62.5 138.5v16q-4 82 -64.5 139.5t-138.5 57.5q-86 0 -146.5 -60.5t-60.5 -144.5zM772 1384q0 90 70.5 149.5t160.5 59.5q68 0 119 -30.5t80 -78.5t29 -100q0 -88 -67.5 -146t-160.5 -58 q-100 0 -165.5 61.5t-65.5 142.5z" />
<glyph unicode="&#xe5;" horiz-adv-x="1425" d="M51 518q0 147 69.5 267t186.5 187.5t248 67.5q106 0 197.5 -59t138.5 -178v237h430v-1040h-430v190q-102 -207 -336 -206q-133 0 -249 70.5t-185.5 192.5t-69.5 271zM360 1528q0 160 99.5 257t253.5 97q109 0 187.5 -47t120.5 -128t42 -179q0 -158 -97.5 -253t-252.5 -95 q-156 0 -254.5 97t-98.5 251zM481 512q0 -86 61.5 -145.5t145.5 -59.5q82 0 140.5 58.5t62.5 138.5v16q-4 82 -64.5 139.5t-138.5 57.5q-86 0 -146.5 -60.5t-60.5 -144.5zM588 1528q0 -55 34.5 -89t90.5 -34q57 0 87.5 32.5t30.5 90.5q0 57 -33.5 93t-88.5 36q-53 0 -87 -36 t-34 -93z" />
<glyph unicode="&#xe6;" horiz-adv-x="2164" d="M51 518q0 147 69.5 267t186.5 187.5t248 67.5q106 0 197.5 -59t138.5 -178v254l399 -31v-90q131 121 324 121q152 0 265.5 -65.5t176 -183.5t62.5 -269q0 -20 -4 -54l-674 -79q55 -143 254 -144q154 0 331 72l50 -283q-186 -84 -396 -84q-133 0 -226 31t-163 92v-90 l-399 -33v223q-102 -207 -336 -206q-133 0 -249 70.5t-185.5 192.5t-69.5 271zM481 512q0 -86 61.5 -145.5t145.5 -59.5q82 0 140.5 58.5t62.5 138.5v16q-4 82 -64.5 139.5t-138.5 57.5q-86 0 -146.5 -60.5t-60.5 -144.5zM1421 594l377 70q-20 61 -67.5 95t-116.5 34 q-88 0 -138.5 -53.5t-54.5 -145.5z" />
<glyph unicode="&#xe7;" horiz-adv-x="966" d="M51 512q0 147 74 268t201 190.5t282 69.5q199 0 314 -82l-39 -272q-117 35 -193 35q-98 0 -155.5 -56.5t-57.5 -152.5t57.5 -153.5t151.5 -57.5q82 0 193 35l39 -287q-70 -35 -140.5 -50t-161.5 -15l-24 -76q96 -25 140 -73t44 -122q0 -100 -75.5 -160.5t-204.5 -60.5 q-106 0 -187 37l2 117q49 -16 97 -17q55 0 85.5 24.5t30.5 72.5q0 39 -32.5 63.5t-85.5 32.5l59 176q-188 41 -301 179t-113 335z" />
<glyph unicode="&#xe8;" horiz-adv-x="1138" d="M51 512q0 156 76 276.5t205 186t286 65.5q152 0 259.5 -66.5t161 -180t53.5 -254.5q0 -37 -5 -54l-614 -79q25 -72 80 -104t145 -32q139 0 301 72l52 -274q-190 -84 -418 -84q-170 0 -302 68.5t-206 188t-74 271.5zM135 1452l207 367l600 -420l-125 -219zM457 594l317 70 q-33 129 -156 129q-74 0 -116.5 -55.5t-44.5 -143.5z" />
<glyph unicode="&#xe9;" horiz-adv-x="1138" d="M51 512q0 156 76 276.5t205 186t286 65.5q152 0 259.5 -66.5t161 -180t53.5 -254.5q0 -37 -5 -54l-614 -79q25 -72 80 -104t145 -32q139 0 301 72l52 -274q-190 -84 -418 -84q-170 0 -302 68.5t-206 188t-74 271.5zM237 1399l600 420l207 -367l-682 -272zM457 594l317 70 q-33 129 -156 129q-74 0 -116.5 -55.5t-44.5 -143.5z" />
<glyph unicode="&#xea;" horiz-adv-x="1138" d="M51 512q0 156 76 276.5t205 186t286 65.5q152 0 259.5 -66.5t161 -180t53.5 -254.5q0 -37 -5 -54l-614 -79q25 -72 80 -104t145 -32q139 0 301 72l52 -274q-190 -84 -418 -84q-170 0 -302 68.5t-206 188t-74 271.5zM147 1200l252 510h379l252 -510h-340l-78 217l-24 78 l-21 -78l-80 -217h-340zM457 594l317 70q-33 129 -156 129q-74 0 -116.5 -55.5t-44.5 -143.5z" />
<glyph unicode="&#xeb;" horiz-adv-x="1138" d="M51 512q0 156 76 276.5t205 186t286 65.5q152 0 259.5 -66.5t161 -180t53.5 -254.5q0 -37 -5 -54l-614 -79q25 -72 80 -104t145 -32q139 0 301 72l52 -274q-190 -84 -418 -84q-170 0 -302 68.5t-206 188t-74 271.5zM71 1384q0 88 70 148.5t160 60.5q94 0 162.5 -62.5 t68.5 -146.5q0 -88 -69.5 -146t-161.5 -58q-96 0 -163 59t-67 145zM457 594l317 70q-33 129 -156 129q-74 0 -116.5 -55.5t-44.5 -143.5zM649 1384q0 90 70.5 149.5t160.5 59.5q68 0 119 -30.5t80 -78.5t29 -100q0 -88 -67.5 -146t-160.5 -58q-100 0 -165.5 61.5 t-65.5 142.5z" />
<glyph unicode="&#xec;" horiz-adv-x="747" d="M-139 1452l207 367l600 -420l-125 -219zM98 395v631h434v-612q0 -47 26 -73t67 -26t84 25l22 -285q-45 -35 -117.5 -53t-150.5 -18q-172 0 -268.5 110.5t-96.5 300.5z" />
<glyph unicode="&#xed;" horiz-adv-x="747" d="M-37 1399l600 420l207 -367l-682 -272zM98 395v631h434v-612q0 -47 26 -73t67 -26t84 25l22 -285q-45 -35 -117.5 -53t-150.5 -18q-172 0 -268.5 110.5t-96.5 300.5z" />
<glyph unicode="&#xee;" horiz-adv-x="747" d="M-127 1200l252 510h379l252 -510h-340l-78 217l-24 78l-21 -78l-80 -217h-340zM98 395v631h434v-612q0 -47 26 -73t67 -26t84 25l22 -285q-45 -35 -117.5 -53t-150.5 -18q-172 0 -268.5 110.5t-96.5 300.5z" />
<glyph unicode="&#xef;" horiz-adv-x="747" d="M-203 1384q0 88 70 148.5t160 60.5q94 0 162.5 -62.5t68.5 -146.5q0 -88 -69.5 -146t-161.5 -58q-96 0 -163 59t-67 145zM98 395v631h434v-612q0 -47 26 -73t67 -26t84 25l22 -285q-45 -35 -117.5 -53t-150.5 -18q-172 0 -268.5 110.5t-96.5 300.5zM375 1384 q0 90 70.5 149.5t160.5 59.5q68 0 119 -30.5t80 -78.5t29 -100q0 -88 -67.5 -146t-160.5 -58q-100 0 -165.5 61.5t-65.5 142.5z" />
<glyph unicode="&#xf0;" horiz-adv-x="1341" d="M53 444q0 205 133 321t355 116q174 0 288 -93q-14 106 -47 170l-147 -53l-45 117l104 37q-20 10 -53 15t-61 5q-84 0 -158 -12t-162 -41l-108 303q94 53 221 82t239 29q162 0 292 -57.5t218 -172.5l146 52l45 -115l-123 -43q92 -180 92 -414q0 -215 -79 -379t-221 -254 t-329 -90q-178 0 -314 60.5t-211 169t-75 247.5zM481 444q0 -66 46 -104.5t114 -38.5q92 0 134 66.5t52 195.5q-82 31 -168 31q-80 0 -129 -41t-49 -109z" />
<glyph unicode="&#xf1;" horiz-adv-x="1406" d="M102 0v1012h412v-209q119 238 377 237q197 0 308.5 -140t111.5 -388v-512h-430v555q0 88 -38 135t-106 47q-49 0 -96 -31.5t-76.5 -91t-29.5 -135.5v-479h-433zM207 1282q57 160 148.5 241t203.5 81q43 0 80 -13.5t84 -40.5q43 -23 72.5 -34t62.5 -11q31 0 58.5 24.5 t62.5 76.5l221 -97q-57 -160 -148 -241.5t-204 -81.5q-43 0 -80 13t-84 40q-43 23 -72.5 34t-62.5 11q-31 0 -58.5 -24.5t-62.5 -75.5z" />
<glyph unicode="&#xf2;" horiz-adv-x="1284" d="M51 514q0 156 76 275.5t210 185t306 65.5q174 0 308 -66.5t208 -185t74 -274.5q0 -158 -75 -277.5t-209 -186t-308 -66.5q-172 0 -306 67.5t-209 187t-75 275.5zM188 1452l207 367l600 -420l-125 -219zM453 514q0 -98 54 -160.5t138 -62.5t138.5 62.5t54.5 160.5 t-54.5 160.5t-138.5 62.5t-138 -62.5t-54 -160.5z" />
<glyph unicode="&#xf3;" horiz-adv-x="1284" d="M51 514q0 156 76 275.5t210 185t306 65.5q174 0 308 -66.5t208 -185t74 -274.5q0 -158 -75 -277.5t-209 -186t-308 -66.5q-172 0 -306 67.5t-209 187t-75 275.5zM290 1399l600 420l207 -367l-682 -272zM453 514q0 -98 54 -160.5t138 -62.5t138.5 62.5t54.5 160.5 t-54.5 160.5t-138.5 62.5t-138 -62.5t-54 -160.5z" />
<glyph unicode="&#xf4;" horiz-adv-x="1284" d="M51 514q0 156 76 275.5t210 185t306 65.5q174 0 308 -66.5t208 -185t74 -274.5q0 -158 -75 -277.5t-209 -186t-308 -66.5q-172 0 -306 67.5t-209 187t-75 275.5zM200 1200l252 510h379l252 -510h-340l-78 217l-24 78l-21 -78l-80 -217h-340zM453 514q0 -98 54 -160.5 t138 -62.5t138.5 62.5t54.5 160.5t-54.5 160.5t-138.5 62.5t-138 -62.5t-54 -160.5z" />
<glyph unicode="&#xf5;" horiz-adv-x="1284" d="M51 514q0 156 76 275.5t210 185t306 65.5q174 0 308 -66.5t208 -185t74 -274.5q0 -158 -75 -277.5t-209 -186t-308 -66.5q-172 0 -306 67.5t-209 187t-75 275.5zM145 1282q57 160 148.5 241t203.5 81q43 0 80 -13.5t84 -40.5q43 -23 72.5 -34t62.5 -11q31 0 58.5 24.5 t62.5 76.5l221 -97q-57 -160 -148 -241.5t-204 -81.5q-43 0 -80 13t-84 40q-43 23 -72.5 34t-62.5 11q-31 0 -58.5 -24.5t-62.5 -75.5zM453 514q0 -98 54 -160.5t138 -62.5t138.5 62.5t54.5 160.5t-54.5 160.5t-138.5 62.5t-138 -62.5t-54 -160.5z" />
<glyph unicode="&#xf6;" horiz-adv-x="1284" d="M51 514q0 156 76 275.5t210 185t306 65.5q174 0 308 -66.5t208 -185t74 -274.5q0 -158 -75 -277.5t-209 -186t-308 -66.5q-172 0 -306 67.5t-209 187t-75 275.5zM124 1384q0 88 70 148.5t160 60.5q94 0 162.5 -62.5t68.5 -146.5q0 -88 -69.5 -146t-161.5 -58 q-96 0 -163 59t-67 145zM453 514q0 -98 54 -160.5t138 -62.5t138.5 62.5t54.5 160.5t-54.5 160.5t-138.5 62.5t-138 -62.5t-54 -160.5zM702 1384q0 90 70.5 149.5t160.5 59.5q68 0 119 -30.5t80 -78.5t29 -100q0 -88 -67.5 -146t-160.5 -58q-100 0 -165.5 61.5t-65.5 142.5z " />
<glyph unicode="&#xf7;" d="M123 369v290h983v-290h-983zM389 147q0 76 59.5 122t165.5 46t167 -46t61 -122q0 -78 -58.5 -122.5t-169.5 -44.5q-108 0 -166.5 45t-58.5 122zM389 879q0 76 59.5 122t165.5 46t167 -46.5t61 -121.5q0 -78 -58.5 -123t-169.5 -45q-108 0 -166.5 45t-58.5 123z" />
<glyph unicode="&#xf8;" horiz-adv-x="1284" d="M51 514q0 156 76 275.5t210 185t306 65.5q49 0 96 -6l54 168h143l-64 -196q168 -53 264.5 -183.5t96.5 -308.5q0 -158 -75 -277.5t-209 -186t-308 -66.5q-49 0 -96 6l-53 -168h-144l64 196q-168 55 -264.5 186.5t-96.5 309.5zM440 514q0 -117 72 -182l133 409h-2 q-92 0 -147.5 -62.5t-55.5 -164.5zM641 287h2q92 0 147.5 62.5t55.5 164.5q0 119 -74 182z" />
<glyph unicode="&#xf9;" horiz-adv-x="1286" d="M94 440v586h422v-580q0 -68 38 -105.5t95 -37.5q55 0 91 38t36 105v580h414v-586q0 -135 -68.5 -238.5t-191.5 -160.5t-283 -57q-162 0 -288 57t-195.5 161.5t-69.5 237.5zM188 1452l207 367l600 -420l-125 -219z" />
<glyph unicode="&#xfa;" horiz-adv-x="1286" d="M94 440v586h422v-580q0 -68 38 -105.5t95 -37.5q55 0 91 38t36 105v580h414v-586q0 -135 -68.5 -238.5t-191.5 -160.5t-283 -57q-162 0 -288 57t-195.5 161.5t-69.5 237.5zM290 1399l600 420l207 -367l-682 -272z" />
<glyph unicode="&#xfb;" horiz-adv-x="1286" d="M94 440v586h422v-580q0 -68 38 -105.5t95 -37.5q55 0 91 38t36 105v580h414v-586q0 -135 -68.5 -238.5t-191.5 -160.5t-283 -57q-162 0 -288 57t-195.5 161.5t-69.5 237.5zM200 1200l252 510h379l252 -510h-340l-78 217l-24 78l-21 -78l-80 -217h-340z" />
<glyph unicode="&#xfc;" horiz-adv-x="1286" d="M94 440v586h422v-580q0 -68 38 -105.5t95 -37.5q55 0 91 38t36 105v580h414v-586q0 -135 -68.5 -238.5t-191.5 -160.5t-283 -57q-162 0 -288 57t-195.5 161.5t-69.5 237.5zM124 1384q0 88 70 148.5t160 60.5q94 0 162.5 -62.5t68.5 -146.5q0 -88 -69.5 -146t-161.5 -58 q-96 0 -163 59t-67 145zM702 1384q0 90 70.5 149.5t160.5 59.5q68 0 119 -30.5t80 -78.5t29 -100q0 -88 -67.5 -146t-160.5 -58q-100 0 -165.5 61.5t-65.5 142.5z" />
<glyph unicode="&#xfd;" horiz-adv-x="1368" d="M98 514v512h430v-575q0 -70 39 -116t107 -46q70 0 113.5 59.5t43.5 155.5v522h433v-766q0 -356 -160 -542.5t-457 -186.5q-113 0 -215 23l33 303q80 -12 147 -13q121 0 184.5 73t65.5 273q-106 -205 -342 -204q-199 0 -310.5 140t-111.5 388zM331 1399l600 420l207 -367 l-682 -272z" />
<glyph unicode="&#xfe;" horiz-adv-x="1427" d="M106 -510v1860l433 63v-579q104 223 333 223q137 0 252 -73t182.5 -199t67.5 -273q0 -145 -68.5 -271t-184 -200t-247.5 -74q-117 0 -201.5 58.5t-133.5 164.5v-700h-433zM539 512q0 -86 60 -145.5t142 -59.5q84 0 144.5 61.5t60.5 143.5q0 92 -63.5 148.5t-141.5 56.5 q-84 0 -141 -57.5t-61 -139.5v-8z" />
<glyph unicode="&#xff;" horiz-adv-x="1368" d="M98 514v512h430v-575q0 -70 39 -116t107 -46q70 0 113.5 59.5t43.5 155.5v522h433v-766q0 -356 -160 -542.5t-457 -186.5q-113 0 -215 23l33 303q80 -12 147 -13q121 0 184.5 73t65.5 273q-106 -205 -342 -204q-199 0 -310.5 140t-111.5 388zM165 1384q0 88 70 148.5 t160 60.5q94 0 162.5 -62.5t68.5 -146.5q0 -88 -69.5 -146t-161.5 -58q-96 0 -163 59t-67 145zM743 1384q0 90 70.5 149.5t160.5 59.5q68 0 119 -30.5t80 -78.5t29 -100q0 -88 -67.5 -146t-160.5 -58q-100 0 -165.5 61.5t-65.5 142.5z" />
<glyph unicode="&#x152;" horiz-adv-x="2095" d="M63 700q0 209 83 377t231.5 265.5t335.5 97.5q178 0 307 -99v68h979v-311h-492v-256h449v-258h-449v-277h492v-307h-985v68q-66 -47 -153 -74t-165 -27q-180 0 -324.5 95.5t-226.5 263.5t-82 374zM522 705q0 -170 74 -268.5t197 -98.5q112 0 221 53v633q-115 53 -221 53 q-123 0 -197 -100t-74 -272z" />
<glyph unicode="&#x153;" horiz-adv-x="1896" d="M51 514q0 156 76 275.5t210 185t306 65.5q238 0 379 -135q68 66 159 100.5t195 34.5q152 0 259.5 -66.5t160.5 -180t53 -254.5q0 -37 -4 -54l-614 -79q25 -72 80 -104t145 -32q139 0 301 72l51 -274q-190 -84 -417 -84t-369 137q-143 -137 -381 -137q-172 0 -306 67.5 t-209 187t-75 275.5zM453 514q0 -98 54 -160.5t138 -62.5t138.5 62.5t54.5 160.5t-54.5 160.5t-138.5 62.5t-138 -62.5t-54 -160.5zM1214 594l318 70q-33 129 -156 129q-74 0 -116.5 -55.5t-45.5 -143.5z" />
<glyph unicode="&#x178;" horiz-adv-x="1253" d="M-6 1409h428l199 -633l194 633h451l-426 -1018v-391h-441v391zM108 1767q0 88 70 148.5t160 60.5q94 0 162.5 -62.5t68.5 -146.5q0 -88 -69.5 -146t-161.5 -58q-96 0 -163 59t-67 145zM686 1767q0 90 70.5 149.5t160.5 59.5q68 0 119 -30.5t80 -78.5t29 -100 q0 -88 -67.5 -146t-160.5 -58q-100 0 -165.5 61.5t-65.5 142.5z" />
<glyph unicode="&#x2c6;" d="M172 1200l252 510h379l252 -510h-340l-78 217l-24 78l-21 -78l-80 -217h-340z" />
<glyph unicode="&#x2dc;" d="M117 1282q57 160 148.5 241t203.5 81q43 0 80 -13.5t84 -40.5q43 -23 72.5 -34t62.5 -11q31 0 58.5 24.5t62.5 76.5l221 -97q-57 -160 -148 -241.5t-204 -81.5q-43 0 -80 13t-84 40q-43 23 -72.5 34t-62.5 11q-31 0 -58.5 -24.5t-62.5 -75.5z" />
<glyph unicode="&#x2000;" horiz-adv-x="1101" />
<glyph unicode="&#x2001;" horiz-adv-x="2202" />
<glyph unicode="&#x2002;" horiz-adv-x="1101" />
<glyph unicode="&#x2003;" horiz-adv-x="2202" />
<glyph unicode="&#x2004;" horiz-adv-x="734" />
<glyph unicode="&#x2005;" horiz-adv-x="550" />
<glyph unicode="&#x2006;" horiz-adv-x="367" />
<glyph unicode="&#x2007;" horiz-adv-x="367" />
<glyph unicode="&#x2008;" horiz-adv-x="275" />
<glyph unicode="&#x2009;" horiz-adv-x="440" />
<glyph unicode="&#x200a;" horiz-adv-x="122" />
<glyph unicode="&#x2010;" horiz-adv-x="739" d="M94 354v320h551v-320h-551z" />
<glyph unicode="&#x2011;" horiz-adv-x="739" d="M94 354v320h551v-320h-551z" />
<glyph unicode="&#x2012;" horiz-adv-x="739" d="M94 354v320h551v-320h-551z" />
<glyph unicode="&#x2013;" horiz-adv-x="1024" d="M94 354v320h836v-320h-836z" />
<glyph unicode="&#x2014;" horiz-adv-x="1638" d="M94 354v320h1450v-320h-1450z" />
<glyph unicode="&#x2018;" horiz-adv-x="604" d="M92 700v209q0 236 27.5 339.5t112.5 142.5t280 39v-240q-104 0 -137 -4t-43 -24.5t-10 -78.5h190v-383h-420z" />
<glyph unicode="&#x2019;" horiz-adv-x="604" d="M92 680v240q104 0 137 4t43.5 24.5t10.5 77.5h-191v383h420v-209q0 -236 -27.5 -339t-112.5 -142t-280 -39z" />
<glyph unicode="&#x201a;" horiz-adv-x="604" d="M92 0v383h420v-209q0 -236 -27.5 -339t-112.5 -142t-280 -39v240q104 0 137 4t43.5 24.5t10.5 77.5h-191z" />
<glyph unicode="&#x201c;" horiz-adv-x="1136" d="M92 700v209q0 236 27.5 339.5t112.5 142.5t280 39v-240q-104 0 -137 -4t-43 -24.5t-10 -78.5h190v-383h-420zM624 700v209q0 236 27.5 339.5t112.5 142.5t280 39v-240q-104 0 -137 -4t-43 -24.5t-10 -78.5h190v-383h-420z" />
<glyph unicode="&#x201d;" horiz-adv-x="1136" d="M92 680v240q104 0 137 4t43.5 24.5t10.5 77.5h-191v383h420v-209q0 -236 -27.5 -339t-112.5 -142t-280 -39zM624 680v240q104 0 137 4t43.5 24.5t10.5 77.5h-191v383h420v-209q0 -236 -27.5 -339t-112.5 -142t-280 -39z" />
<glyph unicode="&#x201e;" horiz-adv-x="1136" d="M92 0v383h420v-209q0 -236 -27.5 -339t-112.5 -142t-280 -39v240q104 0 137 4t43.5 24.5t10.5 77.5h-191zM624 0v383h420v-209q0 -236 -27.5 -339t-112.5 -142t-280 -39v240q104 0 137 4t43.5 24.5t10.5 77.5h-191z" />
<glyph unicode="&#x2022;" horiz-adv-x="1036" d="M68 530q0 117 57 212.5t159.5 149.5t233.5 54q129 0 232.5 -53t161 -147.5t57.5 -215.5q0 -127 -61.5 -221t-165 -144t-226.5 -50q-127 0 -229.5 53t-160.5 147.5t-58 214.5z" />
<glyph unicode="&#x2026;" horiz-adv-x="1914" d="M72 197q0 92 63.5 149t167.5 57q102 0 165.5 -60t63.5 -146q0 -96 -59 -152.5t-170 -56.5q-108 0 -169.5 59t-61.5 150zM727 197q0 92 63.5 149t167.5 57q102 0 165.5 -60t63.5 -146q0 -96 -59 -152.5t-170 -56.5q-108 0 -169.5 59t-61.5 150zM1383 197q0 92 63.5 149 t167.5 57q102 0 165.5 -60t63.5 -146q0 -96 -59 -152.5t-170 -56.5q-108 0 -169.5 59t-61.5 150z" />
<glyph unicode="&#x202f;" horiz-adv-x="440" />
<glyph unicode="&#x2039;" horiz-adv-x="577" d="M53 442v369l430 305v-373l-198 -116l198 -125v-373z" />
<glyph unicode="&#x203a;" horiz-adv-x="577" d="M94 129v373l197 125l-197 116v373l430 -305v-369z" />
<glyph unicode="&#x205f;" horiz-adv-x="550" />
<glyph unicode="&#x20ac;" horiz-adv-x="1327" d="M63 492v153h134q-2 14 -2 43q0 39 2 60h-134v153h162q43 147 142.5 260t234.5 174.5t287 61.5q213 0 385 -99l-53 -307q-135 53 -256 53q-205 0 -283 -143h295v-153h-338q-2 -18 -2 -58q0 -31 2 -45h338v-153h-301q80 -158 301 -158q63 0 113.5 12t130.5 43l55 -311 q-170 -100 -375 -101q-160 0 -300 64.5t-240.5 180.5t-141.5 270h-156z" />
<glyph unicode="&#x2122;" horiz-adv-x="1988" d="M96 1161v215h674v-215h-176v-547h-320v547h-178zM889 614v762h315l176 -307l174 307h316v-762h-316v404l-112 -219h-125l-113 219v-404h-315z" />
<glyph unicode="&#x25fc;" horiz-adv-x="1024" d="M0 0v1024h1024v-1024h-1024z" />
</font>
</defs>
</svg>
